Доктор Стрэндж

Лицензия

Добыча

MVO

Дом дракона

1 сезон

Тор

Лицензия

Мэверик

Лицензия

Там, где раки поют

MVO

Властелин колец

1 сезон

Ultimate

pack

Рекомендуем

30

Repack

ВАЖНО

ВАЖНО

Ghostwire

RePack

jed

RePack

nioh2

RePack

RDR2

RePack

NEED FOR SPEED™ PAYBACK

RePack

скачать торрент

Кинопоиск HD

Острые козырьки 6 сезон

6 сезон

FAR CRY 6

RePack

скачать торрент

Лицензия

скачать торрент

MVO

1

1 сезон

скачать торрент

1 сезон

скачать торрент

Лицензия

  

Вдали от Родины (Алексей Швачко) [1960, СССР, драма, военный, DVDRip-AVC от AVP Studio]

Вдали от Родины через торрент piratbit.org

Размер: 1.09 GB | Добавлен: 4 года 4 мес. назад | Торрент скачан:21 раз
Смотреть онлайн Вдали от Родины | Скачать   

21-05-2018 10:42 Вдали от Родины Скачать торрент  

Вдали от Родины
Страна: СССР
Производство: Киностудия им. Довженко

Жанр: драма, военный
Год выпуска: 1960
Продолжительность: 01:23:00

Перевод: Не требуется
Cубтитры: нет
Оригинальная аудиодорожка: русский

Режиссер: Алексей Швачко

В ролях:
Вадим Медведев, Зинаида Кириенко, Ольга Викландт, Агния Елекоева, Михаил Белоусов, Владимир Емельянов, Анатолий Решетников, Всеволод Аксёнов, Михаил Козаков, Борис Дмоховский, Виктор Мягкий, Сергей Петров, Георгий (Юрий) Козаковский, Жан Мельников, Эмма Сидорова...
Об актёрах подробней

Описание:
По мотивам романа Юрия Дольд-Михайлика "И один в поле воин" (1956 г.). В конце пятидесятых годов роман пользовался невероятным успехом у читателей. В библиотеках на него записывались в очередь.
Советский разведчик лейтенант Гончаренко (Вадим Медведев) под именем барона фон Гольдринга переброшен в глубокий тыл к немцам, во Францию, с заданием узнать, где находится секретный подземный завод, изготовляющий новое оружие

Источник: DVD5 R5
Качество видео: DVDRip-AVC
Формат видео: MKV

Видео: 692->760х570 (4:3), 25 fps, H264 ~ 1428 kbps avg, 0.145 bit/pixel
Аудио: 48 kHz, Dolby Digital AC3 5.1, 448 kbps

Раздача от:
Общее
Полное имя : Vdali.ot.Rodiny.1960.DVDRip-AVC_[New-team]_by_AVP_Studio.mkv
Формат : Matroska
Версия формата : Version 2
Размер файла : 1,09 Гбайт
Продолжительность : 1 ч. 22 м.
Общий поток : 1878 Кбит/сек
Дата кодирования : UTC 2018-05-18 13:30:26
Программа кодирования : mkvmerge v6.1.0 ('Old Devil') built on Mar 4 2013 09:10:42
Библиотека кодирования : libebml v1.3.0 + libmatroska v1.4.0

Видео
Идентификатор : 1
Формат : AVC
Формат/Информация : Advanced Video Codec
Профиль формата : High@L4.1
Настройки формата : CABAC / 10 Ref Frames
Параметр CABAC формата : Да
Параметр RefFrames формата : 10 кадров
Идентификатор кодека : V_MPEG4/ISO/AVC
Продолжительность : 1 ч. 22 м.
Битрейт : 1428 Кбит/сек
Ширина : 692 пикселя
Высота : 570 пикселей
Соотношение сторон : 4:3
Режим частоты кадров : Постоянный
Частота кадров : 25,000 кадров/сек
Цветовое пространство : YUV
Субдискретизация насыщенности : 4:2:0
Битовая глубина : 8 бит
Тип развёртки : Прогрессивная
Бит/(Пиксели*Кадры) : 0.145
Размер потока : 826 Мбайт (74%)
Библиотека кодирования : x264 core 130 r2273 b3065e6
Настройки программы : cabac=1 / ref=10 / deblock=1:-2:-1 / analyse=0x3:0x113 / me=umh / subme=10 / psy=1 / psy_rd=1.00:0.00 / mixed_ref=1 / me_range=32 / chroma_me=1 / trellis=2 / 8x8dct=1 / cqm=0 / deadzone=21,11 / fast_pskip=1 / chroma_qp_offset=-2 / threads=6 / lookahead_threads=1 / sliced_threads=0 / nr=0 / decimate=0 / interlaced=0 / bluray_compat=0 / constrained_intra=0 / bframes=8 / b_pyramid=2 / b_adapt=2 / b_bias=0 / direct=3 / weightb=1 / open_gop=0 / weightp=2 / keyint=250 / keyint_min=25 / scenecut=40 / intra_refresh=0 / rc=2pass / mbtree=0 / bitrate=1428 / ratetol=1.0 / qcomp=0.60 / qpmin=0 / qpmax=69 / qpstep=4 / cplxblur=20.0 / qblur=0.5 / ip_ratio=1.40 / pb_ratio=1.30 / aq=1:1.00
Default : Да
Forced : Нет

Аудио
Идентификатор : 2
Формат : AC-3
Формат/Информация : Audio Coding 3
Идентификатор кодека : A_AC3
Продолжительность : 1 ч. 22 м.
Вид битрейта : Постоянный
Битрейт : 448 Кбит/сек
Каналы : 6 каналов
Расположение каналов : Front: L C R, Side: L R, LFE
Частота : 48,0 КГц
Частота кадров : 31,250 кадров/сек (1536 SPF)
Битовая глубина : 16 бит
Метод сжатия : С потерями
Размер потока : 266 Мбайт (24%)
Default : Да
Forced : Нет



Скачать Вдали от Родины через торрент http://picplus.ru/img/1805/21/2279d683.png Скачать, смотреть онлайн Вдали от Родины бесплантно в хорошем качестве Описание:По мотивам романа Юрия Дольд-Михайлика "И один в поле воин" (1956 г.). В конце пятидесятых годов роман пользовался невероятным ... 5 10 1
Info! Золотая раздача, скачанное не засчитывается.
Торрент: Зарегистрирован [2018-05-21 10:42] · скачан: 21 раз
Статус: √ проверено
Размер: 1.09 GB
Как cкачать? Как скачать Вдали от Родины через торрент | UTorrent

% Раздел Тема Автор DL S | L
Кино СССР [ 1.09 GB ] Вдали от Родины | | DVDRip от AVP Studio AVP Studio Скачать
1 | 0

28-11-2019 20:33  

Отключить вcю реклaмy на сайте

    Дорогой пользователь! Огромная просьба, поблагодарите релизера, оцените раздачу и оставьте свои комментарий, если Вы скачали Вдали от Родины через торрент бесплатно!!
    Комментировать посты могут только пользователи прошедшие не сложную регистрацию
    Показать сообщения:    


    Вдали от Родины через торрент
    Скачать бесплатно Вдали от Родины
    Вдали от Родины скачать торрент
    Вдали от Родины смотреть онлайн
    Cкачать фильм Вдали от Родины бесплатно
    Вдали от Родины скачать торрент в хорошем качестве
    Вдали от Родины смотреть онлайн бесплатно в хорошем качестве
    Вы не можете начинать темы
    Вы не можете отвечать на сообщения
    Вы не можете редактировать свои сообщения
    Вы не можете удалять свои сообщения
    Вы не можете голосовать в опросах
    Вы не можете прикреплять файлы к сообщениям
    Вы можете скачивать файлы