новый адрес
Мега распродажа FORZA HORIZON 4 ULTIMATE+ВСЕ DLC+ОНЛАЙН всего за 499р. 349 руб. (супер цена). Внимание количество ограничено!!!

iTunes

1+1

iTunes

мы

iTunes

1

iTunes

Чернобыль

iTunes

Ральф против интернета

Лицензия

ПШазам

Лицензия

Оно 2

Лицензия

30
pack

ВАЖНО

!!Акция!!

Alien_RageХит недели

RePack

Resident Evil 21

ИГРА 18+

pack

RePack

Metro:Exodus

!!Акция!!

Alien_Rage

RePack

fifa19

RePack

Assassins Creed: Odyssey

RePack

NEED FOR SPEED™ PAYBACK

3 сезон

9 сезон

Бесстыжие 9 сезон

Все сериалы

все сериалы на PB.wtf

RePack

FAR CRY 5
Ребята, катастрофически не хватает 1900р. для оплаты серверов за Октябрь (всвязи с блокировками трафик упал в 3 раза), 1-2р., выручайте.
  

Удивительная амазонка: Южная Америка в 3Д / Faszination Amazonas 3D (Бенжамин Ичер / Benjamin Eicher) [2012, Документальный, флора, фауна, BDrip, 1080p] OverUnder / Вертикальная стереопара piratbit.org

Удивительная амазонка: Южная Америка в 3Д через торрент piratbit.org

Размер: 15.68 GB | Добавлен: 1 год 5 мес. назад | Торрент скачан:23 раза
Скачать  

21-05-2018 13:36 Удивительная амазонка: Южная Америка в 3Д Скачать торрент  

Удивительная амазонка: Южная Америка / Faszination Amazonas

Год выпуска: 2012
Страна: Германия
Жанр: Документальный, флора, фауна
Продолжительность: 00:58:00

Перевод: Студийный (одноголосый закадровый)
Русские субтитры: нет
Режиссер: Бенжамин Ичер / Benjamin Eicher

Описание: Добро пожаловать в джунгли Амазонки! Фильм «Амазонка 3D» увлечет вас в незабываемое путешествие по одному из самых экзотических уголков планеты. Река Амазонка течет среди самого большого в мире тропического леса. Это - целый зеленый мир, дающий приют сотням тысяч видов растений и животных. Окунись в жизнь тропиков, не выходя из дома!

Сэмпл: http://sendfile.su/1420535

Качество: BDrip, 1080p
Контейнер: MKV
Формат 3D: OverUnder / Вертикальная стереопара
Порядок ракурсов: левый ракурс первый
Видео кодек: x264
Аудио кодек: DTS
Видео: AVC / High@L5.0 / 23,976 fps / 1920х2160 / 35,7 Мбит/сек
Аудио: Русский / DTS / 48 KHz / 5.1 ch / 1561 Кбит/сек Кбит/сек
Аудио 2: Английский / AC3 / 48 KHz / 5.1 ch / 640 Кбит/сек

ВНИМАНИЕ ! На встроенных ТВ-плеерах работать не будет!!!

ТВ Samsung в названии которого есть надпись Ultra HD , и LG Ultra HD 800 серии, LG C6P, Xiaomi Mi TV 2 воспроизводят полные стереопары встроенными плеерами
Железные плееры на которых воспроизводятся полные стереопары:Popcorn C-200 , Dune HD Smart D1 , Dune HD DUO , Dune HD Smart H1 , Dune HD Smart B1 , Dune HD Max , Dune HD TV-303D, Dune HD TV-102, Dune HD Base 3D, Philips HMP7001, Aura HD, MECOOL BB2
Чтобы изображение было на весь экран в плеере выставляем, если рип 1920х1600 - то выставляем 2.35:1 , если 1920х2160 - то выставляем 16:9
Общее
Уникальный идентификатор : 244004502604128420099275173339984740404 (0xB7918ECCD633C8728851F412379EC034)
Полное имя : E:\Faszination Amazonas.Rip by SeRoGa00.mkv
Формат : Matroska
Версия формата : Version 2
Размер файла : 15,7 Гбайт
Продолжительность : 58 м.
Режим общего битрейта : Переменный
Общий поток : 38,7 Мбит/сек
Дата кодирования : UTC 2018-05-21 13:05:58
Программа кодирования : mkvmerge v3.4.0 ('Rapunzel') сборка от May 15 2010 09:38:20
Библиотека кодирования : libebml v0.8.0 + libmatroska v0.9.0

Видео
Идентификатор : 1
Формат : AVC
Формат/Информация : Advanced Video Codec
Профиль формата : High@L5.0
Параметр CABAC формата : Да
Параметр ReFrames формата : 4 кадра
Идентификатор кодека : V_MPEG4/ISO/AVC
Продолжительность : 58 м.
Битрейт : 35,7 Мбит/сек
Ширина : 1920 пикселей
Высота : 2160 пикселей
Соотношение сторон : 0,889
Частота кадров : 23,976 кадра/сек
Цветовое пространство : YUV
Субдискретизация насыщенности : 4:2:0
Битовая глубина : 8 бит
Тип развёртки : Прогрессивная
Бит/(Пиксели*Кадры) : 0.359
Размер потока : 14,5 Гбайт (92%)
Заголовок : Rip by SeRoGa00
Библиотека кодирования : x264 core 155 r2901 7d0ff22
Настройки программы : cabac=1 / ref=4 / deblock=1:-3:-3 / analyse=0x3:0x113 / me=umh / subme=10 / psy=1 / psy_rd=1.00:0.15 / mixed_ref=1 / me_range=24 / chroma_me=1 / trellis=2 / 8x8dct=1 / cqm=0 / deadzone=21,11 / fast_pskip=1 / chroma_qp_offset=-3 / threads=18 / lookahead_threads=6 / sliced_threads=0 / nr=0 / decimate=0 / interlaced=0 / bluray_compat=0 / constrained_intra=0 / bframes=10 / b_pyramid=2 / b_adapt=2 / b_bias=0 / direct=3 / weightb=1 / open_gop=0 / weightp=2 / keyint=250 / keyint_min=23 / scenecut=40 / intra_refresh=0 / rc_lookahead=60 / rc=crf / mbtree=1 / crf=16.0 / qcomp=0.60 / qpmin=10 / qpmax=69 / qpstep=4 / vbv_maxrate=40000 / vbv_bufsize=40000 / crf_max=0.0 / nal_hrd=none / filler=0 / ip_ratio=1.40 / aq=1:1.00
Default : Да
Forced : Нет

Аудио #1
Идентификатор : 2
Формат : DTS
Формат/Информация : Digital Theater Systems
Профиль формата : MA / Core
Идентификатор кодека : A_DTS
Продолжительность : 58 м.
Вид битрейта : Переменный
Битрейт : 1561 Кбит/сек / 1510 Кбит/сек
Каналы : 6 каналов
Расположение каналов : Front: L C R, Side: L R, LFE
Частота : 48,0 КГц
Битовая глубина : 16 бит
Метод сжатия : Без потерь / Lossy
Язык : Russian
Default : Да
Forced : Нет

Аудио #2
Идентификатор : 3
Формат : AC-3
Формат/Информация : Audio Coding 3
Расширение режима : CM (complete main)
Параметр Endianness формата : Big
Идентификатор кодека : A_AC3
Продолжительность : 58 м.
Вид битрейта : Постоянный
Битрейт : 640 Кбит/сек
Каналы : 6 каналов
Расположение каналов : Front: L C R, Side: L R, LFE
Частота : 48,0 КГц
Битовая глубина : 16 бит
Метод сжатия : С потерями
Размер потока : 266 Мбайт (2%)
Язык : English
Default : Нет
Forced : Нет

Меню #1
00:00:00.000 : en:00:00:00.000
00:04:18.300 : en:00:04:18.300
00:08:59.414 : en:00:08:59.414
00:13:29.392 : en:00:13:29.392
00:18:28.190 : en:00:18:28.190
00:23:26.071 : en:00:23:26.071
00:28:03.223 : en:00:28:03.223
00:33:10.405 : en:00:33:10.405
00:39:05.301 : en:00:39:05.301
00:46:44.260 : en:00:46:44.260
00:50:57.930 : en:00:50:57.930
00:54:02.406 : en:00:54:02.406

Меню #2
00:00:00.000 : en:00:00:00.000
00:04:18.300 : en:00:04:18.300
00:08:59.414 : en:00:08:59.414
00:13:29.392 : en:00:13:29.392
00:18:28.190 : en:00:18:28.190
00:23:26.071 : en:00:23:26.071
00:28:03.223 : en:00:28:03.223
00:33:10.405 : en:00:33:10.405
00:39:05.301 : en:00:39:05.301
00:46:44.260 : en:00:46:44.260
00:50:57.930 : en:00:50:57.930
00:54:02.406 : en:00:54:02.406
скриншот  

скриншот  

скриншот  

скриншот  

скриншот  

скриншот  
piratbit.org



Скачать Удивительная амазонка: Южная Америка в 3Д через торрент https://c.radikal.ru/c34/1805/d6/e054b5e6af50.jpg Скачать фильм Удивительная амазонка: Южная Америка в 3Д через торрент бесплантно в хорошем качестве Описание: Добро пожаловать в джунгли Амазонки! Фильм «Амазонка 3D» увлечет вас в незабываемое путешествие по одному из самых экзотических ... 10 10 1
Торрент: Зарегистрирован [2018-05-21 13:36] · скачан: 23 раз
Статус: √ проверено
Размер: 15.68 GB
Как cкачать? Как скачать Удивительная амазонка: Южная Америка в 3Д через торрент | qTorrent


>> Регистрируемся здесь <<






Отзывы и комментарии о схеме читаем и пишем здесь: ---> Отзывы и комментарии о схеме

Новые благодарочки в телеграм довольных пользователей:
скриншот   скриншот   скриншот   скриншот   скриншот
    Дорогой пользователь! Огромная просьба, поблагодарите релизера, оцените раздачу и оставьте свои комментарий, если Вы скачали Удивительная амазонка: Южная Америка в 3Д через торрент бесплатно! Внесите свою лепту в развитие PiratBit!
    Комментировать посты могут только пользователи прошедшие не сложную регистрацию
    Показать сообщения:    

    Удивительная амазонка: Южная Америка в 3Д через торрент
    Скачать бесплатно Удивительная амазонка: Южная Америка в 3Д
    Удивительная амазонка: Южная Америка в 3Д скачать торрент
    Удивительная амазонка: Южная Америка в 3Д смотреть онлайн
    Cкачать фильм Удивительная амазонка: Южная Америка в 3Д бесплатно
    Удивительная амазонка: Южная Америка в 3Д скачать торрент в хорошем качестве
    Удивительная амазонка: Южная Америка в 3Д смотреть онлайн бесплатно в хорошем качестве


    Вы не можете начинать темы
    Вы не можете отвечать на сообщения
    Вы не можете редактировать свои сообщения
    Вы не можете удалять свои сообщения
    Вы не можете голосовать в опросах
    Вы не можете прикреплять файлы к сообщениям
    Вы можете скачивать файлы