Достать ножи: Стеклянная луковица

MVO

Добыча

Дубляж

Уэнсдэй

1 сезон

Тор

Дубляж

13 клиническая

1 сезон

Жестокая ночь

MVO

Одни из нас

1 сезон

Deluxe

pack

Рекомендуем

30

Пиратка

ВАЖНО

ВАЖНО

Ghostwire

Пиратка

jed

RePack

nioh2

RePack

RDR2

RePack

NEED FOR SPEED™ PAYBACK

RePack

скачать торрент

Кинопоиск HD

Острые козырьки 6 сезон

6 сезон

FAR CRY 6

RePack

скачать торрент

Лицензия

скачать торрент

MVO

1

1 сезон

скачать торрент

1 сезон

скачать торрент

Лицензия

  

Недруги / Hostiles (Скотт Купер) [2017, драма, приключения, вестерн, UHD BDRip 2160p] Дубляж [Лицензия]

Недруги через торрент piratbit.org

Размер: 20.76 GB | Добавлен: 3 года 10 мес. назад | Торрент скачан:43 раза
Смотреть онлайн | Скачать | Поддержите нас   

22-05-2018 03:42 Недруги Скачать торрент  

Недруги / Hostiles

Год выпуска: 2017
Страна: США
Жанр: драма, приключения, вестерн
Продолжительность: 02:14:18
Перевод: Дублированный | Лицензия
Субтитры: Русские (Forced), английские, испанский
Режиссер: Скотт Купер
В ролях:

Кристиан Бэйл (Capt. Joseph J. Blocker), Розамунд Пайк (Rosalie Quaid), Уэс Стьюди (Chief Yellow Hawk), Рори Кокрейн (Master Sgt. Thomas Metz), Джесси Племонс (Lt. Rudy Kidder), Джонатан Мэйджерс (Corp. Henry Woodsen), Бен Фостер (Sgt. Charles Wills), Адам Бич (Black Hawk), К’Орианка Килчер (Elk Woman), Тимоти Шаламе (Pvt. Philippe DeJardin), Скотт Шеперд (Wesley Quaid), Ава Купер (Lucy Quaid)
Описание:
Когда на твоих глазах льется кровь, когда ты вынужден убивать, ты превращаешься в зверя... После долгих лет войны он дышал злобой, проклинал краснокожих, в каждом из них он видел врага. На исходе войны капитан Блокер получает приказ доставить на родину в Монтану умирающего вождя по кличке Желтый Ястреб. В цепях и кандалах он ведет семью индейцев через земли, где обитают враждебные племена и скрываются беглые преступники, где за каждым камнем поджидает смертельная опасность. Где-то на пути к отряду Блокера пристает обезумевшая от горя вдова, на глазах которой команчи убили ее детей. Эта встреча меняет всё...
Рейтинг:

MPAA: R - Лицам до 17 лет обязательно присутствие взрослого
Качество: UHD BDRip 2160p
Формат: MKV
Видео: HEVC, HDR, 17900 Кбит/с, 3840x1606, 23.976 Кадр/с, 10 бит
Аудио #1: |RUS| AC-3, 48.0 kHz, 6 ch, 640 kb/s, CBR | Дублированный, лицензия |
Аудио #2: |ENG| DTS MA, 48.0 kHz, 6 ch, 3582 kb/s | Original |
Навигация по главам: есть
Знаете ли вы, что...
Розамунд Пайк привлекла внимание режиссёра Скотта Купера игрой в музыкальной короткометражке Рингана Левиджа «Massive Attack: Voodoo in My Blood » (2016).
Розамунд Пайк и Кристиан Бэйл почти не разговаривали друг с другом на съёмочной площадке.
Фильм был полностью снят в хронологическом порядке.
Общее
Уникальный идентификатор : 233586194030330278870066418749144455852 (0xAFBB108784B2F9F5A5A93A57F6C65AAC)
Полное имя : D:\Мои раздачи\Передел\Hostiles.2017.2160p.BluRay.x265.10bit.HDR.Master5.mkv
Формат : Matroska
Версия формата : Version 4 / Version 2
Размер файла : 20,8 Гбайт
Продолжительность : 2 ч. 14 м.
Общий поток : 22,1 Мбит/сек
Название фильма : Hostiles.2017.2160p.BluRay.x265.10bit.HDR.Master5
Дата кодирования : UTC 2019-03-10 09:17:30
Программа кодирования : mkvmerge v7.9.0 ('Birds') 64bit
Библиотека кодирования : libebml v1.3.1 + libmatroska v1.4.2

Видео
Идентификатор : 1
Формат : HEVC
Формат/Информация : High Efficiency Video Coding
Коммерческое название : HDR10
Профиль формата : Main 10@L5.1@High
Идентификатор кодека : V_MPEGH/ISO/HEVC
Продолжительность : 2 ч. 14 м.
Битрейт : 17,9 Мбит/сек
Ширина : 3840 пикселей
Высота : 1606 пикселей
Соотношение сторон : 2,40:1
Режим частоты кадров : Постоянный
Частота кадров : 23,976 (24000/1001) кадра/сек
Цветовое пространство : YUV
Субдискретизация насыщенности : 4:2:0 (Type 2)
Битовая глубина : 10 бит
Бит/(Пиксели*Кадры) : 0.121
Размер потока : 16,8 Гбайт (81%)
Заголовок : Hostiles.2017.2160p.BluRay.x265.10bit.HDR.Master5
Библиотека кодирования : x265 2.7+3-9086c8a3e76d:[Windows][GCC 8.0.1][64 bit] 10bit
Настройки программы : cpuid=1173503 / frame-threads=5 / numa-pools=32 / wpp / no-pmode / no-pme / no-psnr / no-ssim / log-level=2 / input-csp=1 / input-res=3840x1606 / interlace=0 / total-frames=193173 / level-idc=51 / high-tier=1 / uhd-bd=0 / ref=4 / no-allow-non-conformance / repeat-headers / annexb / aud / hrd / info / hash=0 / no-temporal-layers / no-open-gop / min-keyint=24 / keyint=240 / gop-lookahead=0 / bframes=4 / b-adapt=2 / b-pyramid / bframe-bias=0 / rc-lookahead=25 / lookahead-slices=4 / scenecut=40 / radl=0 / no-intra-refresh / ctu=64 / min-cu-size=8 / rect / no-amp / max-tu-size=32 / tu-inter-depth=1 / tu-intra-depth=1 / limit-tu=0 / rdoq-level=2 / dynamic-rd=0.00 / no-ssim-rd / signhide / no-tskip / nr-intra=0 / nr-inter=0 / no-constrained-intra / no-strong-intra-smoothing / max-merge=3 / limit-refs=3 / limit-modes / me=3 / subme=3 / merange=57 / temporal-mvp / weightp / no-weightb / no-analyze-src-pics / deblock=-3:-3 / no-sao / no-sao-non-deblock / rd=4 / no-early-skip / rskip / no-fast-intra / no-tskip-fast / no-cu-lossless / no-b-intra / no-splitrd-skip / rdpenalty=0 / psy-rd=2.00 / psy-rdoq=1.00 / no-rd-refine / no-lossless / cbqpoffs=0 / crqpoffs=0 / rc=crf / crf=17.0 / qcomp=0.60 / qpstep=4 / stats-write=0 / stats-read=0 / vbv-maxrate=160000 / vbv-bufsize=160000 / vbv-init=0.9 / crf-max=0.0 / crf-min=0.0 / ipratio=1.40 / pbratio=1.30 / aq-mode=1 / aq-strength=1.00 / cutree / zone-count=0 / no-strict-cbr / qg-size=32 / no-rc-grain / qpmax=69 / qpmin=0 / no-const-vbv / sar=1 / overscan=0 / videoformat=5 / range=0 / colorprim=9 / transfer=16 / colormatrix=9 / chromaloc=1 / chromaloc-top=2 / chromaloc-bottom=2 / display-window=0 / master-display=G(13250,34500)B(7500,3000)R(34000,16000)WP(15635,16450)L(10000000,50) / max-cll=1000,229 / min-luma=0 / max-luma=1023 / log2-max-poc-lsb=8 / vui-timing-info / vui-hrd-info / slices=1 / no-opt-qp-pps / no-opt-ref-list-length-pps / no-multi-pass-opt-rps / scenecut-bias=0.05 / no-opt-cu-delta-qp / no-aq-motion / hdr / hdr-opt / no-dhdr10-opt / analysis-reuse-level=5 / scale-factor=0 / refine-intra=0 / refine-inter=0 / refine-mv=0 / no-limit-sao / ctu-info=0 / no-lowpass-dct / refine-mv-type=0 / copy-pic=1
Default : Да
Forced : Нет
Цветовой диапазон : Limited
Основные цвета : BT.2020
Характеристики трансфера : PQ
Коэффициенты матрицы : BT.2020 non-constant
MasteringDisplay_ColorPrimaries : Display P3
MasteringDisplay_Luminance : min: 0.0050 cd/m2, max: 1000 cd/m2
MaxCLL : 1000 cd/m2
MaxFALL : 229 cd/m2

Аудио #1
Идентификатор : 2
Формат : AC-3
Формат/Информация : Audio Coding 3
Идентификатор кодека : A_AC3
Продолжительность : 2 ч. 14 м.
Вид битрейта : Постоянный
Битрейт : 640 Кбит/сек
Каналы : 6 каналов
Расположение каналов : Front: L C R, Side: L R, LFE
Частота : 48,0 КГц
Частота кадров : 31,250 кадров/сек (1536 SPF)
Битовая глубина : 16 бит
Метод сжатия : С потерями
Размер потока : 615 Мбайт (3%)
Заголовок : Лицензия
Язык : Russian
ServiceKind/String : Complete Main
Default : Да
Forced : Нет

Аудио #2
Идентификатор : 3
Формат : DTS
Формат/Информация : Digital Theater Systems
Профиль формата : MA / Core
Идентификатор кодека : A_DTS
Продолжительность : 2 ч. 14 м.
Вид битрейта : Переменный / Постоянный
Битрейт : 3582 Кбит/сек / 1509 Кбит/сек
Каналы : 6 каналов
Расположение каналов : Front: L C R, Side: L R, LFE
Частота : 48,0 КГц
Частота кадров : 93,750 кадра/сек (512 SPF)
Битовая глубина : 24 бит
Метод сжатия : Без потерь / Lossy
Размер потока : 3,36 Гбайт (16%)
Язык : English
Default : Нет
Forced : Нет

Текст #1
Идентификатор : 4
Формат : UTF-8
Идентификатор кодека : S_TEXT/UTF8
Идентификатор кодека/Информация : UTF-8 Plain Text
Продолжительность : 1 ч. 37 м.
Битрейт : 5 бит/сек
ElementCount : 84
Размер потока : 3,73 Кбайт (0%)
Язык : Russian
Default : Да
Forced : Да

Текст #2
Идентификатор : 5
Формат : UTF-8
Идентификатор кодека : S_TEXT/UTF8
Идентификатор кодека/Информация : UTF-8 Plain Text
Продолжительность : 2 ч. 3 м.
Битрейт : 24 бит/сек
ElementCount : 739
Размер потока : 21,9 Кбайт (0%)
Заголовок : Full
Язык : English
Default : Нет
Forced : Нет

Текст #3
Идентификатор : 6
Формат : PGS
Режим смешивания : zlib
Идентификатор кодека : S_HDMV/PGS
Идентификатор кодека/Информация : Picture based subtitle format used on BDs/HD-DVDs
Продолжительность : 2 ч. 3 м.
Битрейт : 9379 бит/сек
ElementCount : 1814
Размер потока : 8,30 Мбайт (0%)
Язык : Spanish
Default : Нет
Forced : Нет

Меню
00:00:00.000 : en:00:00:00.000
00:08:18.540 : en:00:08:18.540
00:20:32.064 : en:00:20:32.064
00:25:28.819 : en:00:25:28.819
00:34:48.336 : en:00:34:48.336
00:40:23.546 : en:00:40:23.546
00:51:40.597 : en:00:51:40.597
01:00:18.615 : en:01:00:18.615
01:08:17.176 : en:01:08:17.176
01:14:52.071 : en:01:14:52.071
01:25:29.249 : en:01:25:29.249
01:34:35.461 : en:01:34:35.461
01:43:05.513 : en:01:43:05.513
01:50:45.973 : en:01:50:45.973
01:54:10.677 : en:01:54:10.677
02:05:21.806 : en:02:05:21.806



Скачать Недруги через торрент https://b.radikal.ru/b35/1903/25/4de20fef7b62.png Скачать, смотреть онлайн Недруги бесплантно в хорошем качестве Описание: Когда на твоих глазах льется кровь, когда ты вынужден убивать, ты превращаешься в зверя... После долгих лет войны он дышал ... 10 10 14
Info! Золотая раздача, скачанное не засчитывается.
Торрент: Зарегистрирован [2019-03-10 13:05] · скачан: 43 раз
Статус: √ проверено
Размер: 20.76 GB
Как cкачать? Как скачать Недруги через торрент | UTorrent

% Раздел Тема Автор DL S | L
Фильмы 2017 [DVDrip, WEB-DLRip, HDrip] (DUB, MVO) [ 1.46 GB ] Недруги / Hostiles | Лицензия | BDRip bober100 Скачать
1 | 0
Фильмы [HD 720p, 1080p] (Хороший звук DUB, MVO) [ 13.36 GB ] Недруги / Hostiles | Лицензия | 1080p bober100 Скачать
1 | 0
Фильмы 2017 [DVDrip, WEB-DLRip, HDrip] (DUB, MVO) [ 2.18 GB ] Недруги / Hostiles | Лицензия | BDRip bober100 Скачать
1 | 0
Ultra HD (UHD: 2K, 4K, 8K) [ 70.52 GB ] Недруги / Hostiles | Лицензия | 2160p sheker187 Скачать
1 | 0
Фильмы 2017 [DVDrip, WEB-DLRip, HDrip] (DUB, MVO) [ 2.36 GB ] Недруги / Hostiles | Лицензия | BDRip-AVC bober100 Скачать
1 | 0
Фильмы (Blu-ray, BD-Remux, HDDVD) [ 42.48 GB ] Недруги / Hostiles | Лицензия | 1080p bober100 Скачать
1 | 0
Фильмы (Blu-ray, BD-Remux, HDDVD) [ 36.99 GB ] Недруги / Hostiles | Лицензия | BD Remux 1080p bober100 Скачать
1 | 0



Последний раз редактировалось: sheker187 (2019-03-10 13:06), всего редактировалось 3 раз(а)

28-11-2019 20:33  


Отключить вcю реклaмy на сайте, в т.ч. и в плеере онлайн просмотра!

04-10-2018 17:24 Недруги Скачать торрент  

как это в топе устрарело давайте 4к 60 фпс что нибудь лучше 2018!!!!!



05-10-2018 16:42 Недруги Скачать торрент  

AndreiUSApower писал(а):

как это в топе устрарело давайте 4к 60 фпс что нибудь лучше 2018!!!!!

А вы не зажрались товарищ?Хлеба нету ни фига,мажем красную икру прямо на колбасу У меня монитор 100 герцовый,даёшь 100фпс идиотизм



10-03-2019 13:05 Недруги Скачать торрент  

Релиз обновлён - замена на лицензию
Желающие, скачайте заново торрент-файл.
Приятного просмотра!



    Дорогой пользователь! Огромная просьба, поблагодарите релизера, оцените раздачу и оставьте свои комментарий, если Вы скачали Недруги через торрент бесплатно!!
    Комментировать посты могут только пользователи прошедшие не сложную регистрацию
    Показать сообщения:    


    Недруги через торрент
    Скачать бесплатно Недруги
    Недруги скачать торрент
    Недруги смотреть онлайн
    Cкачать фильм Недруги бесплатно
    Недруги скачать торрент в хорошем качестве
    Недруги смотреть онлайн бесплатно в хорошем качестве
    Вы не можете начинать темы
    Вы не можете отвечать на сообщения
    Вы не можете редактировать свои сообщения
    Вы не можете удалять свои сообщения
    Вы не можете голосовать в опросах
    Вы не можете прикреплять файлы к сообщениям
    Вы можете скачивать файлы
    Недруги / Hostiles [2017, драма, приключения, вестерн, UHD BDRip 2160p] Дубляж [Лицензия] смотреть онлайн, скачать торрент picoco.icu