2 сезон

iTunes

WEBRip

1

2 сезон

iTunes

1 сезон

1 сезон

RePack

30

Ultimate

ВАЖНО

ИГРА 18+

pack

RePack

MK11
pack

Легкие деньги

RePack

jed

RePack

fifa19

RePack

RDR2

RePack

NEED FOR SPEED™ PAYBACK

4 сезон

9 сезон

Бесстыжие 9 сезон

Все сериалы

все сериалы на PB.wtf

RePack

FAR CRY 5

Anonymous, доброй ночи, мы не успеваем собрать деньги на оплату серверов за февраль, помогите нам пожалуйста в это трудное время. В качестве благодарности мы отключим Вам всю рекламу на сайте (укажите свой ник в строку Ваше имя)!

×
  
Magnet ссылка

Чужая молитва (Ахтем Сейтаблаев) [2017, драма, WEBRip-AVC] [Ukr] piratbit.org

Чужая молитва через торрент piratbit.org

Размер: 1.64 GB | Добавлен: 2 года 9 мес. назад | Торрент скачан:53 раза
Скачать  

22-05-2018 05:55 Чужая молитва Скачать торрент  

Чужа молитва / Чужая молитва
Год выхода : 2017
Жанр : драма
Страна : Украина
Продолжительность : 01:28:41
Язык : Украинский [оригинал]

Режиссер : Ахтем Сейтаблаев

В ролях: Лилия Яценко, Андриан Цвикер, Шмуель Ацмон, Ахтем Сеитаблаєв, Вениамин Прибура, Антон Себастьян, Александр Мельник, Дмитрий Сарансков

Описание: Основой сюжета стала реальная история молодой крымскотатарской девушки Саиде, которая во время оккупации нацистами Бахчисарая и депортации крымскотатарского народа спасла жизнь 88 еврейским детям. Девушка работает воспитательницей в приюте для татарских детей-сирот, когда встречает мальчика Ицхака, который вместе с другими еврейскими детьми скрывается от немецких оккупантов. Несмотря на угрозу для своей жизни, Саиде берет под свою защиту воспитанников и выдает маленьких евреев за татар - дает им новые имена, учит языку, обычаям и молитвам.

rating

Файл
Качество : WEBRip-AVC
Формат видео : MKV
Видео : 1024 х 576, 25 fps, ~ 2541 kbps avg
Звук : 48.0 kHz, AC3, 2 ch, ~ 192.00 kbps avg

Релиз --
General
Unique ID : 142471465609611325763736403907392061556 (0x6B2F0195436DE9B317AB6DEAB27C4074)
Complete name : E:\INTERNET\Чужа молитва (2017) WEBRip-AVC [Hurtom].mkv
Format : Matroska
Format version : Version 4 / Version 2
File size : 1.64 GiB
Duration : 1 h 28 min
Overall bit rate mode : Variable
Overall bit rate : 2 645 kb/s
Encoded date : UTC 2018-05-20 08:27:38
Writing application : mkvmerge v21.0.0 ('Tardigrades Will Inherit The Earth') 64-bit
Writing library : libebml v1.3.5 + libmatroska v1.4.8
Cover : Yes
Attachments : cover.jpg

Video
ID : 1
Format : AVC
Format/Info : Advanced Video Codec
Format profile : High@L3.1
Format settings : CABAC / 3 Ref Frames
Format settings, CABAC : Yes
Format settings, RefFrames : 3 frames
Codec ID : V_MPEG4/ISO/AVC
Duration : 1 h 28 min
Bit rate mode : Variable
Bit rate : 2 451 kb/s
Maximum bit rate : 2 999 kb/s
Width : 1 024 pixels
Height : 576 pixels
Display aspect ratio : 16:9
Frame rate mode : Constant
Frame rate : 25.000 FPS
Color space : YUV
Chroma subsampling : 4:2:0
Bit depth : 8 bits
Scan type : Progressive
Bits/(Pixel*Frame) : 0.166
Stream size : 1.52 GiB (93%)
Language : Ukrainian
Default : Yes
Forced : No

Audio
ID : 2
Format : AC-3
Format/Info : Audio Coding 3
Format settings, Endianness : Big
Codec ID : A_AC3
Duration : 1 h 28 min
Bit rate mode : Constant
Bit rate : 192 kb/s
Channel(s) : 2 channels
Channel positions : Front: L R
Sampling rate : 44.1 kHz
Frame rate : 28.711 FPS (1536 SPF)
Bit depth : 16 bits
Compression mode : Lossy
Stream size : 122 MiB (7%)
Language : Ukrainian
Service kind : Complete Main
Default : Yes
Forced : No
скриншот   скриншот   скриншот  
piratbit.org



Скачать Чужая молитва через торрент https://b.radikal.ru/b37/1805/33/eb46758747d8.jpg Скачать фильм Чужая молитва через торрент бесплантно в хорошем качестве Описание: Основой сюжета стала реальная история молодой крымскотатарской девушки Саиде, которая во время оккупации нацистами Бахчисарая и ... 8 10 2
Торрент: Зарегистрирован [2018-05-22 05:55] · скачан: 53 раз
Статус: √ проверено
Размер: 1.64 GB
Как cкачать? Как скачать Чужая молитва через торрент | UTorrent

28-11-2019 20:33  

Отключить всю рекламу на сайте

22-05-2018 16:21 Чужая молитва Скачать торрент  

Всё это весело , но вот только депортация "крымскотатарского народа"была в 1944 году . Как она могла спасать еврейских детей после депортации . Кроме того депортации подверглись крымские татары ввиду того , что 80% дезертировали из красной армии . Крымские татары организовали угон в рабство на территорию фашистской Германии 80 000 советских граждан и убийство 75 000 советских граждан . Американцы задолго до этого просто отправили в концлагеря всех этнических японцев и ничего . Про спасение евреев крымской татаркой - фэйк , кстати . Даже на википедии и то ничего нет такого .piratbit.org



22-05-2018 17:06 Чужая молитва Скачать торрент  

CTEHbKA писал(а):

Даже на википедии и то ничего нет такого

Все там есть -ЖМЕМ -piratbit.org



23-05-2018 15:19 Чужая молитва Скачать торрент  

killermax2013 писал(а):

CTEHbKA писал(а):

Даже на википедии и то ничего нет такого

Все там есть -ЖМЕМ -

У украинцев альтернативная история и альтернативная википедия ... не удивлён нисколько .piratbit.org



23-05-2018 16:01 Чужая молитва Скачать торрент  

CTEHbKA писал(а):

killermax2013 писал(а):

CTEHbKA писал(а):

Даже на википедии и то ничего нет такого

Все там есть -ЖМЕМ -

У украинцев альтернативная история и альтернативная википедия ... не удивлён нисколько .

у русских тоже своя альтернатива придуманнаяpiratbit.org



23-08-2018 15:42 Чужая молитва Скачать торрент  

killermax2013 писал(а):

CTEHbKA писал(а):

killermax2013 писал(а):

CTEHbKA писал(а):

Даже на википедии и то ничего нет такого

Все там есть -ЖМЕМ -

У украинцев альтернативная история и альтернативная википедия ... не удивлён нисколько .

у русских тоже своя альтернатива придуманная

я бы сказал не "у русских", а "у россиян"piratbit.org



    Дорогой пользователь! Огромная просьба, поблагодарите релизера, оцените раздачу и оставьте свои комментарий, если Вы скачали Чужая молитва через торрент бесплатно! Внесите свою лепту в развитие PiratBit!
    Комментировать посты могут только пользователи прошедшие не сложную регистрацию
    Показать сообщения:    

    Чужая молитва через торрент
    Скачать бесплатно Чужая молитва
    Чужая молитва скачать торрент
    Чужая молитва смотреть онлайн
    Cкачать фильм Чужая молитва бесплатно
    Чужая молитва скачать торрент в хорошем качестве
    Чужая молитва смотреть онлайн бесплатно в хорошем качестве


    Вы не можете начинать темы
    Вы не можете отвечать на сообщения
    Вы не можете редактировать свои сообщения
    Вы не можете удалять свои сообщения
    Вы не можете голосовать в опросах
    Вы не можете прикреплять файлы к сообщениям
    Вы можете скачивать файлы