Достать ножи: Стеклянная луковица

MVO

Добыча

Дубляж

Уэнсдэй

1 сезон

Тор

Дубляж

13 клиническая

1 сезон

Жестокая ночь

MVO

Одни из нас

1 сезон

Deluxe

pack

Рекомендуем

30

Пиратка

ВАЖНО

ВАЖНО

Ghostwire

Пиратка

jed

RePack

nioh2

RePack

RDR2

RePack

NEED FOR SPEED™ PAYBACK

RePack

скачать торрент

Кинопоиск HD

Острые козырьки 6 сезон

6 сезон

FAR CRY 6

RePack

скачать торрент

Лицензия

скачать торрент

MVO

1

1 сезон

скачать торрент

1 сезон

скачать торрент

Лицензия

  

Стартрек: Возмездие / Star Trek Into Darkness (Джей Джей Абрамс) [2013, фантастика, боевик, приключения, UHD BDRip 2160p] Дубляж [IMAX]

Стартрек: Возмездие через торрент piratbit.org

Размер: 63.53 GB | Добавлен: 4 года 8 мес. назад | Торрент скачан:21 раз
Смотреть онлайн | Скачать | Поддержите нас   

24-05-2018 19:10 Стартрек: Возмездие Скачать торрент  

Стартрек: Возмездие / Star Trek Into Darkness

Год выпуска: 2013
Страна: США, Bad Robot, Kurtzman/Orci, Paramount Pictures, Skydance Productions
Жанр: фантастика, боевик, приключения
Продолжительность: 02:12:06
Перевод: Дублированный
Режиссер: Джей Джей Абрамс
В ролях:

Крис Пайн (Kirk), Закари Куинто (Spock), Бенедикт Камбербэтч (Khan), Саймон Пегг (Scotty), Карл Урбан (Bones), Зои Салдана (Uhura), Элис Ив (Carol Marcus), Джон Чо (Sulu), Антон Ельчин (Chekov), Питер Уэллер (Marcus), Брюс Гринвуд (Pike), Ноэль Кларк (Thomas Harewood)
Описание:
Вернувшись на Землю, команда корабля «Энтерпрайз» обнаруживает, что деятельность и принципы их организации подорваны изнутри. Флот скован необъяснимым ужасом и бездействует, пока мир все глубже погружается в бездну.
Рейтинг:

MPAA: PG-13 - Детям до 13 лет просмотр не желателен
Качество: UHD BDRip 2160p
Формат: MKV
Видео: HEVC, HDR, 60.0 Мбит/с, 3840x2160, 23.976 Кадр/с
Аудио 1: DTS-HD MA, 5.1 ch, 48 kHz, 4055 kbps - Русский (Дубляж)
Аудио 2: DTS-HD MA 7.1 ch, 48 kHz, 4866 kbps - Английский (Оригинал)
Общее
Уникальный идентификатор : 232404884810708478191578195098146218773 (0xAED78D7CF3F5AD1CBC56D1F4C23CA315)
Полное имя : Q:\Star trek 2 (2160p H265).mkv
Формат : Matroska
Версия формата : Version 4 / Version 2
Размер файла : 63,5 Гбайт
Продолжительность : 2 ч. 12 м.
Общий поток : 68,8 Мбит/сек
Название фильма : Release for
Дата кодирования : UTC 2016-10-01 11:18:33
Программа кодирования : mkvmerge v9.2.0 ('Photograph') 64bit
Библиотека кодирования : libebml v1.3.3 + libmatroska v1.4.4

Видео
Идентификатор : 3
Формат : HEVC
Формат/Информация : High Efficiency Video Coding
Профиль формата : Main 10@L6.1@Main
Идентификатор кодека : V_MPEGH/ISO/HEVC
Продолжительность : 2 ч. 12 м.
Битрейт : 60,0 Мбит/сек
Ширина : 3840 пикселей
Высота : 2160 пикселей
Соотношение сторон : 16:9
Режим частоты кадров : Постоянный
Частота кадров : 23,976 (24000/1001) кадра/сек
Цветовое пространство : YUV
Субдискретизация насыщенности : 4:2:0
Битовая глубина : 10 бит
Бит/(Пиксели*Кадры) : 0.301
Размер потока : 55,3 Гбайт (87%)
Библиотека кодирования : x265 1.9+3-63308f7658c3:[Windows][GCC 5.2.0][64 bit] 10bit
Настройки программы : wpp / ctu=64 / min-cu-size=8 / max-tu-size=32 / tu-intra-depth=1 / tu-inter-depth=1 / me=1 / subme=2 / merange=57 / no-rect / no-amp / max-merge=2 / temporal-mvp / no-early-skip / rdpenalty=0 / no-tskip / no-tskip-fast / strong-intra-smoothing / no-lossless / no-cu-lossless / no-constrained-intra / no-fast-intra / open-gop / no-temporal-layers / interlace=0 / keyint=240 / min-keyint=24 / scenecut=40 / rc-lookahead=20 / lookahead-slices=8 / bframes=4 / bframe-bias=0 / b-adapt=2 / ref=3 / limit-refs=3 / no-limit-modes / weightp / no-weightb / aq-mode=1 / qg-size=32 / aq-strength=1.00 / cbqpoffs=0 / crqpoffs=0 / rd=3 / psy-rd=2.00 / rdoq-level=0 / psy-rdoq=0.00 / signhide / deblock / sao / no-sao-non-deblock / b-pyramid / cutree / no-intra-refresh / rc=abr / bitrate=61000 / qcomp=0.60 / qpmin=0 / qpmax=51 / qpstep=4 / ipratio=1.40 / pbratio=1.30
Default : Да
Forced : Нет
Цветовой диапазон : Limited
Основные цвета : BT.709
Характеристики трансфера : BT.709
Коэффициенты матрицы : BT.601

Аудио #1
Идентификатор : 1
Формат : DTS
Формат/Информация : Digital Theater Systems
Профиль формата : MA / Core
Режим : 16
Параметр Endianness формата : Big
Идентификатор кодека : A_DTS
Продолжительность : 2 ч. 12 м.
Вид битрейта : Переменный / Постоянный
Битрейт : 4055 Кбит/сек / 1509 Кбит/сек
Каналы : 6 каналов
Расположение каналов : Front: L C R, Side: L R, LFE
Частота : 48,0 КГц
Частота кадров : 93,750 кадра/сек (512 spf)
Битовая глубина : 24 бит
Метод сжатия : Без потерь / Lossy
Задержка видео : -2 мс.
Размер потока : 3,74 Гбайт (6%)
Заголовок : Дубляж [Blu-ray]
Язык : Russian
Default : Да
Forced : Нет

Аудио #2
Идентификатор : 2
Формат : DTS
Формат/Информация : Digital Theater Systems
Профиль формата : MA / Core
Режим : 16
Параметр Endianness формата : Big
Идентификатор кодека : A_DTS
Продолжительность : 2 ч. 12 м.
Вид битрейта : Переменный / Постоянный
Битрейт : 4866 Кбит/сек / 1509 Кбит/сек
Каналы : 8 каналов / 6 каналов
Расположение каналов : Front: L C R, Side: L R, Back: L R, LFE / Front: L C R, Side: L R, LFE
Частота : 48,0 КГц
Частота кадров : 93,750 кадра/сек (512 spf)
Битовая глубина : 24 бит
Метод сжатия : Без потерь / Lossy
Задержка видео : -2 мс.
Размер потока : 4,49 Гбайт (7%)
Заголовок : Оригинал
Язык : English
Default : Нет
Forced : Нет



Скачать Стартрек: Возмездие через торрент https://b.radikal.ru/b04/1805/4e/6adb047bcaac.jpg Скачать, смотреть онлайн Стартрек: Возмездие бесплантно в хорошем качестве Описание: Вернувшись на Землю, команда корабля «Энтерпрайз» обнаруживает, что деятельность и принципы их организации подорваны изнутри. ... 10 10 2
Info! Золотая раздача, скачанное не засчитывается.
Торрент: Зарегистрирован [2018-05-24 19:10] · скачан: 21 раз
Статус: √ проверено
Размер: 63.53 GB
Как cкачать? Как скачать Стартрек: Возмездие через торрент | UTorrent

% Раздел Тема Автор DL S | L
Ultra HD (UHD: 2K, 4K, 8K) [ 58.54 GB ] Стартрек: Возмездие / Star Trek Into Darkness | DUB + AVO | 2160p sheker187 Скачать
1 | 0
Фильмы [HD 720p, 1080p] (Хороший звук DUB, MVO) [ 5.91 GB ] Стартрек: Возмездие / Star Trek: Into Darkness | Дубляж | 1080p, HEVC (10bit Мичман37 Скачать
2 | 0
Фильмы (Blu-ray, BD-Remux, HDDVD) [ 37.18 GB ] Стартрек: Возмездие / Star Trek Into Darkness | DUB + AVO | 1080p sheker187 Скачать
1 | 0
Ultra HD (UHD: 2K, 4K, 8K) [ 50.26 GB ] Стартрек: Возмездие / Star Trek Into Darkness [IMAX Edition | Лицензия | 2160p от ExKinoRay | 4K | HDR | Лицензия Ворон Скачать
1 | 0
Фильмы 2013 [DVDrip, WEB-DLRip, HDrip] [ 2.18 GB ] Стартрек: Возмездие / Star Trek Into Darkness | DUB | BDRip, DUB [лицензия Ворон Скачать
1 | 0
Фильмы [HD 720p, 1080p] (Хороший звук DUB, MVO) [ 15.13 GB ] Стартрек: Возмездие / Star Trek Into Darkness | iTunes | 1080p, DUB лисяра Скачать
1 | 0
Фильмы [HD 720p, 1080p] (Хороший звук DUB, MVO) [ 9.44 GB ] Стартрек: Возмездие / Star Trek Into Darkness [IMAX Edition | DUB + AVO | 720p Messa-fan Скачать
1 | 0

28-11-2019 20:33  


Отключить вcю реклaмy на сайте, в т.ч. и в плеере онлайн просмотра!

    Дорогой пользователь! Огромная просьба, поблагодарите релизера, оцените раздачу и оставьте свои комментарий, если Вы скачали Стартрек: Возмездие через торрент бесплатно!!
    Комментировать посты могут только пользователи прошедшие не сложную регистрацию
    Показать сообщения:    


    Стартрек: Возмездие через торрент
    Скачать бесплатно Стартрек: Возмездие
    Стартрек: Возмездие скачать торрент
    Стартрек: Возмездие смотреть онлайн
    Cкачать фильм Стартрек: Возмездие бесплатно
    Стартрек: Возмездие скачать торрент в хорошем качестве
    Стартрек: Возмездие смотреть онлайн бесплатно в хорошем качестве
    Вы не можете начинать темы
    Вы не можете отвечать на сообщения
    Вы не можете редактировать свои сообщения
    Вы не можете удалять свои сообщения
    Вы не можете голосовать в опросах
    Вы не можете прикреплять файлы к сообщениям
    Вы можете скачивать файлы
    Стартрек: Возмездие / Star Trek Into Darkness [2013, фантастика, боевик, приключения, UHD BDRip 2160p] Дубляж [IMAX] смотреть онлайн, скачать торрент picoco.icu