Достать ножи: Стеклянная луковица

MVO

Добыча

Дубляж

Уэнсдэй

1 сезон

Тор

Дубляж

13 клиническая

1 сезон

Жестокая ночь

MVO

Одни из нас

1 сезон

Deluxe

pack

Рекомендуем

30

Пиратка

ВАЖНО

ВАЖНО

Ghostwire

Пиратка

jed

RePack

nioh2

RePack

RDR2

RePack

NEED FOR SPEED™ PAYBACK

RePack

скачать торрент

Кинопоиск HD

Острые козырьки 6 сезон

6 сезон

FAR CRY 6

RePack

скачать торрент

Лицензия

скачать торрент

MVO

1

1 сезон

скачать торрент

1 сезон

скачать торрент

Лицензия

  

Выживший / The Revenant (Алехандро Гонсалес Иньярриту) [2015, триллер, драма, приключения, UHD BDRip 2160p] Дубляж + 2xAVO

Выживший через торрент piratbit.org

Размер: 35.96 GB | Добавлен: 4 года 8 мес. назад | Торрент скачан:86 раз
Смотреть онлайн | Скачать | Поддержите нас   

25-05-2018 04:15 Выживший Скачать торрент  

Выживший / The Revenant«До последней капли крови»
Год выпуска: 2015
Страна: США, Гонконг, Тайвань
Жанр: триллер, драма, приключения, вестерн, история
Продолжительность: 02:36:21
Перевод: Дублированный, Авторский
Субтитры: Русские, английские
Режиссер: Алехандро Гонсалес Иньярриту
В ролях:

Леонардо ДиКаприо (Hugh Glass), Том Харди (John Fitzgerald), Донал Глисон (Captain Andrew Henry), Уилл Поултер (Bridger), Форрест Гудлак (Hawk), Пол Андерсон (Anderson), Кристоффер Йонер (Murphy), Джошуа Бёрдж (Stubby Bill), Дуан Ховард (Elk Dog), Мила Нахеко (Powaqa), Фабрис Адд (Toussaint), Артур РедКлауд (Hikuc)
Описание:
Охотник Хью Гласс серьезно ранен на неизведанных просторах американского Дикого Запада. Товарищ Хью по отряду покорителей новых земель Джон Фицжеральд предательски оставляет его умирать в одиночестве. Теперь у Гласса осталось только одно оружие - его сила воли. Он готов бросить вызов первобытной природе, суровой зиме и враждебным племенам индейцев, только чтобы выжить и отомстить Фицжеральду.
Рейтинг:

MPAA: R - Лицам до 17 лет обязательно присутствие взрослого
Качество: UHD BDRip 2160p
Формат: MKV
Видео: MPEG-4 AVC, 24300 Кбит/с, 3840x1608, 23.976 кадр/с
Аудио 1: Русский 48.0 KHz, DTS 5.1, 1509 Kbps | Дубляж
Аудио 2: Русский 48.0 KHz, DTS 5.1, 1509 Kbps | Авторский Ю. Сербин
Аудио 3: Русский 48.0 KHz, DTS 5.1, 1509 Kbps | Авторский Д. Есарев
Аудио 4: Английский 48.0 KHz, DTS 7.1, 4603 Kbps | Оригинал
Обладатель 3 премий «ОСКАР» за Лучшую мужская роль (Леонардо ДиКаприо), Лучшего режиссера (Алехандро Гонсалес Иньярриту) и Лучшую работу оператора, 2016 г.
General
Unique ID : 237792732062428581006463284948195645734 (0xB2E536DDEA79A855A833741538749926)
Complete name : C:\Downloads\The Revenant.mkv
Format : Matroska
Format version : Version 4 / Version 2
File size : 36.0 GiB
Duration : 2h 36mn
Overall bit rate : 32.9 Mbps
Movie name : Выживший
Encoded date : UTC 2016-06-04 06:27:01
Writing application : mkvmerge v7.2.0 ('On Every Street') 64bit built on Sep 13 2014 15:52:10
Writing library : libebml v1.3.0 + libmatroska v1.4.1

Video
ID : 1
Format : HEVC
Format/Info : High Efficiency Video Coding
Format profile : Main@L5@Main
Codec ID : V_MPEGH/ISO/HEVC
Duration : 2h 32mn
Bit rate : 24.3 Mbps
Width : 3 840 pixels
Height : 1 608 pixels
Display aspect ratio : 2.40:1
Frame rate mode : Constant
Frame rate : 23.976 (23976/1000) fps
Original frame rate : 23.976 (24000/1001) fps
Color space : YUV
Chroma subsampling : 4:2:0
Bit depth : 8 bits
Bits/(Pixel*Frame) : 0.164
Stream size : 26.0 GiB (72%)
Writing library : x265 1.9:[Windows][GCC 4.9.0][64 bit] 8bit
Encoding settings : wpp / ctu=64 / min-cu-size=8 / max-tu-size=32 / tu-intra-depth=1 / tu-inter-depth=1 / me=1 / subme=2 / merange=57 / no-rect / no-amp / max-merge=2 / temporal-mvp / no-early-skip / rdpenalty=0 / no-tskip / no-tskip-fast / strong-intra-smoothing / no-lossless / no-cu-lossless / no-constrained-intra / no-fast-intra / open-gop / no-temporal-layers / interlace=0 / keyint=240 / min-keyint=24 / scenecut=40 / rc-lookahead=20 / lookahead-slices=8 / bframes=4 / bframe-bias=0 / b-adapt=2 / ref=3 / limit-refs=3 / no-limit-modes / weightp / no-weightb / aq-mode=1 / qg-size=32 / aq-strength=1.00 / cbqpoffs=0 / crqpoffs=0 / rd=3 / psy-rd=2.00 / rdoq-level=0 / psy-rdoq=0.00 / signhide / deblock / sao / no-sao-non-deblock / b-pyramid / cutree / no-intra-refresh / rc=abr / bitrate=25000 / qcomp=0.60 / qpmin=0 / qpmax=51 / qpstep=4 / ipratio=1.40 / pbratio=1.30
Default : Yes
Forced : No
Color range : Limited
Color primaries : BT.709
Transfer characteristics : BT.709
Matrix coefficients : BT.709

Audio #1
ID : 2
Format : DTS
Format/Info : Digital Theater Systems
Mode : 16
Format settings, Endianness : Big
Codec ID : A_DTS
Duration : 2h 36mn
Bit rate mode : Constant
Bit rate : 1 509 Kbps
Channel(s) : 6 channels
Channel positions : Front: L C R, Side: L R, LFE
Sampling rate : 48.0 KHz
Frame rate : 93.750 fps (512 spf)
Bit depth : 24 bits
Compression mode : Lossy
Delay relative to video : -83ms
Stream size : 1.65 GiB (5%)
Title : Дубляж
Language : Russian
Default : Yes
Forced : No

Audio #2
ID : 3
Format : DTS
Format/Info : Digital Theater Systems
Mode : 16
Format settings, Endianness : Big
Codec ID : A_DTS
Duration : 2h 36mn
Bit rate mode : Constant
Bit rate : 1 509 Kbps
Channel(s) : 6 channels
Channel positions : Front: L C R, Side: L R, LFE
Sampling rate : 48.0 KHz
Frame rate : 93.750 fps (512 spf)
Bit depth : 24 bits
Compression mode : Lossy
Delay relative to video : -83ms
Stream size : 1.65 GiB (5%)
Title : Ю. Сербин
Language : Russian
Default : No
Forced : No

Audio #3
ID : 4
Format : DTS
Format/Info : Digital Theater Systems
Mode : 16
Format settings, Endianness : Big
Codec ID : A_DTS
Duration : 2h 36mn
Bit rate mode : Constant
Bit rate : 1 509 Kbps
Channel(s) : 6 channels
Channel positions : Front: L C R, Side: L R, LFE
Sampling rate : 48.0 KHz
Frame rate : 93.750 fps (512 spf)
Bit depth : 24 bits
Compression mode : Lossy
Delay relative to video : -83ms
Stream size : 1.65 GiB (5%)
Title : Д. Есарев
Language : Russian
Default : No
Forced : No

Audio #4
ID : 5
Format : DTS
Format/Info : Digital Theater Systems
Format profile : MA / Core
Mode : 16
Format settings, Endianness : Big
Codec ID : A_DTS
Duration : 2h 36mn
Bit rate mode : Variable / Constant
Bit rate : 4 603 Kbps / 1 509 Kbps
Channel(s) : 8 channels / 6 channels
Channel positions : Front: L C R, Side: L R, Back: L R, LFE / Front: L C R, Side: L R, LFE
Sampling rate : 48.0 KHz
Frame rate : 93.750 fps (512 spf)
Bit depth : 24 bits
Compression mode : Lossless / Lossy
Delay relative to video : -83ms
Stream size : 5.03 GiB (14%)
Title : Оригинал
Language : English
Default : No
Forced : No

Text #1
ID : 6
Format : UTF-8
Codec ID : S_TEXT/UTF8
Codec ID/Info : UTF-8 Plain Text
Duration : 2h 20mn
Bit rate : 5 bps
Count of elements : 146
Stream size : 6.17 KiB (0%)
Title : Форсированные
Language : Russian
Default : Yes
Forced : No

Text #2
ID : 7
Format : UTF-8
Codec ID : S_TEXT/UTF8
Codec ID/Info : UTF-8 Plain Text
Duration : 2h 20mn
Bit rate : 41 bps
Count of elements : 846
Stream size : 43.2 KiB (0%)
Title : Русские
Language : Russian
Default : No
Forced : No

Text #3
ID : 8
Format : UTF-8
Codec ID : S_TEXT/UTF8
Codec ID/Info : UTF-8 Plain Text
Duration : 2h 20mn
Bit rate : 26 bps
Count of elements : 981
Stream size : 27.0 KiB (0%)
Title : Английские
Language : English
Default : No
Forced : No



Скачать Выживший через торрент https://d.radikal.ru/d14/1805/48/b89ce6eee3e0.jpg Скачать, смотреть онлайн Выживший бесплантно в хорошем качестве Описание: Охотник Хью Гласс серьезно ранен на неизведанных просторах американского Дикого Запада. Товарищ Хью по отряду покорителей новых ... 10 10 4
Торрент: Зарегистрирован [2018-05-25 04:15] · скачан: 86 раз
Статус: √ проверено
Размер: 35.96 GB
Как cкачать? Как скачать Выживший через торрент | UTorrent

28-11-2019 20:33  


Отключить вcю реклaмy на сайте, в т.ч. и в плеере онлайн просмотра!

20-01-2019 14:50 Выживший Скачать торрент  

Отличное качество , впрочем как и фильм . Рекомендовано к перепросмотру в 4К .



    Дорогой пользователь! Огромная просьба, поблагодарите релизера, оцените раздачу и оставьте свои комментарий, если Вы скачали Выживший через торрент бесплатно!!
    Комментировать посты могут только пользователи прошедшие не сложную регистрацию
    Показать сообщения:    


    Выживший через торрент
    Скачать бесплатно Выживший
    Выживший скачать торрент
    Выживший смотреть онлайн
    Cкачать фильм Выживший бесплатно
    Выживший скачать торрент в хорошем качестве
    Выживший смотреть онлайн бесплатно в хорошем качестве
    Вы не можете начинать темы
    Вы не можете отвечать на сообщения
    Вы не можете редактировать свои сообщения
    Вы не можете удалять свои сообщения
    Вы не можете голосовать в опросах
    Вы не можете прикреплять файлы к сообщениям
    Вы можете скачивать файлы
    Выживший / The Revenant [2015, триллер, драма, приключения, UHD BDRip 2160p] Дубляж + 2xAVO смотреть онлайн, скачать торрент picoco.icu