Доктор Стрэндж

Лицензия

Добыча

Дубляж

Дом дракона

1 сезон

Тор

Дубляж

В эфире

Дубляж

Там, где раки поют

MVO

Властелин колец

1 сезон

Deluxe

pack

Рекомендуем

30

Пиратка

ВАЖНО

ВАЖНО

Ghostwire

Пиратка

jed

RePack

nioh2

RePack

RDR2

RePack

NEED FOR SPEED™ PAYBACK

RePack

скачать торрент

Кинопоиск HD

Острые козырьки 6 сезон

6 сезон

FAR CRY 6

RePack

скачать торрент

Лицензия

скачать торрент

MVO

1

1 сезон

скачать торрент

1 сезон

скачать торрент

Лицензия

  

Неизвестный солдат / Tuntematon sotilas / Unknown soldier (Аку Лоухимиес / Aku Louhimies) [2017, драма, военный, BDRip 1080р] VO (Рутилов)

Неизвестный солдат через торрент piratbit.org

Размер: 17.07 GB | Добавлен: 4 года 6 мес. назад | Торрент скачан:103 раза
Смотреть онлайн | Скачать   

25-05-2018 05:47 Неизвестный солдат Скачать торрент  

Неизвестный солдат / Tuntematon sotilas

Год выпуска: 2017
Страна: Финляндия, Бельгия, Исландия
Жанр: драма, военный

Продолжительность: 03:00:05
Перевод: Любительский одноголосый [Виктор Рутилов, по субтитрам karlivanovich]
Примечание: Релиз без рекламы
Субтитры: русские (Full | karlivanovich)
Режиссер: Аку Лоухимиес
В ролях:

Еэро Ахо (Rokka), Йоханнес Холопайнен (Kariluoto), Юсси Ватанен (Koskela), Аку Хирвиниеми (Hietanen), Ханнес Суоминен (Vanhala), Артту Капулайнен (Susi), Паула Весала (Lyyti), Самули Ваурамо (Lammio), Йунас Саартамо (Lahtinen), Юхо Милонофф (Honkajoki), Андрей Ален (Rahikainen), Матти Ристинен (Sarastie)
Описание:
Третья по счёту экранизация одноимённого романа финского писателя Вяйнё Линна, рассказывающего о военных действиях 1941-1944 гг на советско-финском фронте, имеющих в финской историографии название Jatkosota ("Война-продолжение" - в противовес закончившейся годом ранее "Зимней войне", Talvisota). События фильма показаны глазами бойцов пулемётной роты: от стремительного наступления лета-осени 1941 года, в результате которого была занята значительная часть Карелии (включая как утраченную в ходе Зимней войны территорию, так и не принадлежавшие ранее Финляндии земли, в том числе город Петрозаводск), позиционной войны 1942-43 гг и вплоть до сентября 1944, когда после начавшегося в июне наступления советских войск Финляндия вынуждена была запросить прекращения боевых действий и подписать с СССР соглашение о перемирии.
Рейтинг:
rating
Качество: BDRip 1080p
Формат: MKV
Видео: AVC, 1920x804 (2.40:1), 12500 kbps, 24 fps, 0,337 bpp
Аудио №1: русский / AC3 / 5.1 / 48 kHz / 448 kbps / |VO|
Аудио №2: финский / AC3 / 5.1 / 48 kHz / 640 kbps /

General
Unique ID : 280090003341090705022006463311009184822 (0xD2B75F59439EFA38DB4BD921B7FE7C36)
Complete name : F:\The.Unknown.Soldier.2017.BDRip.1080p.mkv
Format : Matroska
Format version : Version 4 / Version 2
File size : 17.1 GiB
Duration : 3 h 0 min
Overall bit rate : 13.6 Mb/s
Movie name : Tuntematon sotilas (2017) BDRip 1080p
Encoded date : UTC 2018-05-25 05:14:13
Writing application : mkvmerge v23.0.0 ('The Bride Said No') 64-bit
Writing library : libebml v1.3.6 + libmatroska v1.4.9

Video
ID : 1
Format : AVC
Format/Info : Advanced Video Codec
Format profile : High@L4.1
Format settings, CABAC : Yes
Format settings, ReFrames : 5 frames
Codec ID : V_MPEG4/ISO/AVC
Duration : 3 h 0 min
Bit rate : 12.5 Mb/s
Width : 1 920 pixels
Height : 804 pixels
Display aspect ratio : 2.40:1
Frame rate mode : Constant
Frame rate : 24.000 FPS
Color space : YUV
Chroma subsampling : 4:2:0
Bit depth : 8 bits
Scan type : Progressive
Bits/(Pixel*Frame) : 0.337
Stream size : 15.7 GiB (92%)
Writing library : x264 core 152 r2851kMod ba24899
Encoding settings : cabac=1 / ref=5 / deblock=1:-3:-3 / analyse=0x3:0x133 / me=umh / subme=11 / psy=1 / fade_compensate=0.00 / psy_rd=1.05:0.00 / mixed_ref=1 / me_range=48 / chroma_me=1 / trellis=2 / 8x8dct=1 / cqm=0 / deadzone=21,11 / fast_pskip=0 / chroma_qp_offset=-2 / threads=24 / lookahead_threads=4 / sliced_threads=0 / nr=0 / decimate=0 / interlaced=0 / bluray_compat=0 / constrained_intra=0 / bframes=8 / b_pyramid=2 / b_adapt=2 / b_bias=0 / direct=3 / weightb=1 / open_gop=0 / weightp=2 / keyint=240 / keyint_min=2 / scenecut=40 / intra_refresh=0 / rc=2pass / mbtree=0 / bitrate=12500 / ratetol=1.0 / qcomp=0.70 / qpmin=0 / qpmax=69 / qpstep=4 / cplxblur=20.0 / qblur=0.5 / ip_ratio=1.30 / pb_ratio=1.20 / aq=3:0.85
Language : Finnish
Default : Yes
Forced : No

Audio #1
ID : 2
Format : AC-3
Format/Info : Audio Coding 3
Mode extension : CM (complete main)
Format settings, Endianness : Big
Codec ID : A_AC3
Duration : 3 h 0 min
Bit rate mode : Constant
Bit rate : 448 kb/s
Channel(s) : 6 channels
Channel positions : Front: L C R, Side: L R, LFE
Sampling rate : 48.0 kHz
Frame rate : 31.250 FPS (1536 spf)
Compression mode : Lossy
Stream size : 577 MiB (3%)
Title : VO | Виктор Рутилов
Language : Russian
Default : Yes
Forced : No

Audio #2
ID : 3
Format : AC-3
Format/Info : Audio Coding 3
Mode extension : CM (complete main)
Format settings, Endianness : Big
Codec ID : A_AC3
Duration : 3 h 0 min
Bit rate mode : Constant
Bit rate : 640 kb/s
Channel(s) : 6 channels
Channel positions : Front: L C R, Side: L R, LFE
Sampling rate : 48.0 kHz
Frame rate : 31.250 FPS (1536 spf)
Compression mode : Lossy
Stream size : 824 MiB (5%)
Title : Original
Language : Finnish
Default : No
Forced : No

Text
ID : 4
Format : UTF-8
Codec ID : S_TEXT/UTF8
Codec ID/Info : UTF-8 Plain Text
Duration : 2 h 53 min
Bit rate : 51 b/s
Count of elements : 1090
Stream size : 65.4 KiB (0%)
Title : Full | karlivanovich
Language : Russian
Default : No
Forced : No



Скачать Неизвестный солдат через торрент http://i104.fastpic.ru/big/2018/0525/b2/e95108fd68e22a00cbf7ab82877421b2.jpg Скачать, смотреть онлайн Неизвестный солдат бесплантно в хорошем качестве Описание: Третья по счёту экранизация одноимённого романа финского писателя Вяйнё Линна, рассказывающего о военных действиях 1941-1944 гг ... 7.4 10 7
Info! Золотая раздача, скачанное не засчитывается.
Торрент: Зарегистрирован [2018-05-25 05:47] · скачан: 103 раз
Статус: T временная
Размер: 17.07 GB
Как cкачать? Как скачать Неизвестный солдат через торрент | UTorrent

% Раздел Тема Автор DL S | L
T R.G. Resident & PiratVoice - Фильмы, Видео [ 2.91 GB ] Неизвестный солдат / Tuntematon sotilas / Unknown soldier | | HDRip от R.G. Resident -Lexx- Скачать
1 | 0
T Релизы по Парсеру [Игры, Сериалы и Фильмы и другое...] [ 9.29 GB ] Неизвестный солдат / Tuntematon sotilas / Unknown soldier | MVO | 720p -Lexx- Скачать
1 | 0
T Релизы по Парсеру [Игры, Сериалы и Фильмы и другое...] [ 4.34 GB ] Неизвестный солдат / Tuntematon sotilas / Unknown soldier | MVO | BDRip-AVC -Lexx- Скачать
1 | 0

28-11-2019 20:33  


Отключить вcю реклaмy на сайте, в т.ч. и в плеере онлайн просмотра!

25-05-2018 06:38 Неизвестный солдат Скачать торрент  

забугорные оценки хороши, может виноват перевод ?



25-05-2018 06:46 Неизвестный солдат Скачать торрент  

GuruBrain, перевод и озвучка, кстати, вполне приличные. А разные оценки.. имхо, из-за разницы во взглядах на исторические события (судя по комментариям к фильму на других ресурсах).



25-05-2018 13:31 Неизвестный солдат Скачать торрент  

видно модно с ведением санкций снимать фильмы о вов со стороны захватчиков и народов которые помогали фашизму



29-06-2018 16:36 Неизвестный солдат Скачать торрент  

Med писал(а):

видно модно с ведением санкций снимать фильмы о вов со стороны захватчиков и народов которые помогали фашизму

Сума то не сходи, санкционер патриотичный. Фильмы всегда и все стороны снимали. Ты видимо или сейчас только вылупился на свет, или до этого только покемонов на ютубе смотрел.



    Дорогой пользователь! Огромная просьба, поблагодарите релизера, оцените раздачу и оставьте свои комментарий, если Вы скачали Неизвестный солдат через торрент бесплатно!!
    Комментировать посты могут только пользователи прошедшие не сложную регистрацию
    Показать сообщения:    


    Неизвестный солдат через торрент
    Скачать бесплатно Неизвестный солдат
    Неизвестный солдат скачать торрент
    Неизвестный солдат смотреть онлайн
    Cкачать фильм Неизвестный солдат бесплатно
    Неизвестный солдат скачать торрент в хорошем качестве
    Неизвестный солдат смотреть онлайн бесплатно в хорошем качестве
    Вы не можете начинать темы
    Вы не можете отвечать на сообщения
    Вы не можете редактировать свои сообщения
    Вы не можете удалять свои сообщения
    Вы не можете голосовать в опросах
    Вы не можете прикреплять файлы к сообщениям
    Вы можете скачивать файлы
    Неизвестный солдат / Tuntematon sotilas / Unknown soldier [2017, драма, военный, BDRip 1080р] VO смотреть онлайн, скачать торрент picoco.icu