новый адрес
Мега распродажа FORZA HORIZON 4 ULTIMATE+ВСЕ DLC+ОНЛАЙН всего за 499р. 349 руб. (супер цена). Внимание количество ограничено!!!

iTunes

1+1

iTunes

мы

iTunes

1

iTunes

Чернобыль

iTunes

Ральф против интернета

Лицензия

ПШазам

Лицензия

Оно 2

Лицензия

30
pack

ВАЖНО

!!Акция!!

Alien_RageХит недели

RePack

Resident Evil 21

ИГРА 18+

pack

RePack

Metro:Exodus

!!Акция!!

Alien_Rage

RePack

fifa19

RePack

Assassins Creed: Odyssey

RePack

NEED FOR SPEED™ PAYBACK

3 сезон

9 сезон

Бесстыжие 9 сезон

Все сериалы

все сериалы на PB.wtf

RePack

FAR CRY 5
Ребята, катастрофически не хватает 1900р. для оплаты серверов за Октябрь (всвязи с блокировками трафик упал в 3 раза), 1-2р., выручайте.
  

Галапагосы с Дэвидом Аттенборо в 3Д / Galapagos 3D (Мартин Уильямс / Martin Williams) [2013, Документальный, BDrip, 1080p] OverUnder / Вертикальная стереопара piratbit.org

Галапагосы с Дэвидом Аттенборо в 3Д через торрент piratbit.org

Размер: 29.26 GB | Добавлен: 1 год 5 мес. назад | Торрент скачан:11 раз
Скачать  

26-05-2018 05:27 Галапагосы с Дэвидом Аттенборо в 3Д Скачать торрент  

Галапагосы с Дэвидом Аттенборо / Galapagos

Год выпуска: 2013
Страна: Великобритания (Colossus Productions, Sky TV)
Жанр: Документальный
Продолжительность: 02:36:30

Перевод: Любительский (одноголосый закадровый) (Юрий Онищенко, перевод - Logos71)

Русские субтитры: нет
Режиссер на русском: Мартин Уильямс / Martin Williams

В ролях: Дэвид Аттенборо (автор и рассказчик), Саймон Де Гланвиль, Энтони Геффен, Алекс Хемингуэй, Robert Hollingworth, Мартин Уильямс, Пол Уильямс

Описание: Галапагосские острова — один из самых необычных и красивых архипелагов, место на Земле, где обитают удивительные существа, способные поразить даже бывалых путешественников и ученых. Когда-то эти острова служили убежищем для пиратских судов, а затем стали национальным природным парком, где животные до сих пор не боятся человека. Совершите путешествие на Галапагосы и погрузитесь в волшебный мир островов, которые вдохновили Чарльза Дарвина на идею теории эволюции.

Серии:

1. Происхождение / Origin (00:52:10)
Галапагосы, место полное чудес. Острова, рождённые в океане из огня около 4 млн. лет назад и населённые обитателями, которые кардинально изменили наше представление о возникновении жизни на земле.

2. Адаптация / Adaptation (00:52:10)
На бескрайних просторах Тихого Океана затерялось место, не похожее ни на какое другое. Чарующие вулканические острова, которые приходятся домом целым колониям удивительных животных и растений. Здесь эволюционные процессы протекают с головокружительной быстротой. Миллионы лет назад эти острова заселили когорты чудных переселенцев. Но чтобы приспособится к этим жёстким и безжалостным условиям, новоприбывшим пришлось существенно измениться. Даже сегодня раскрыты далеко не все их удивительные способности. История этих существ, как мозаика складывается в единую повесть о том, как Галапагосы стали фаворитами по разнообразию сред обитания на нашей планете.

3. Эволюция / Evolution (00:52:10)
На каждом из 16-ти Галапагосских островов обитает уникальное сообщество живых организмов. Открытие всех этих существ привело к появлению учения, которое совершило переворот в нашем понимании возникновения жизни на Земле.

Дополнительная информация по релизу :
Первый сезон сериала - три серии из четырёх. Четвёртая серия была Фильм о фильме (на БД 3Д не выходила).

О вшитой русской дороге :
ТВ-версия и БД-версия отличаются не только продолжительностью, но и монтажом звука - в некоторых местах голос рассказчика наложен на совершенно другую музыку. Потому многие склейки при редактировании хорошо заметны.
Некоторых эпизодов в ТВ-версии не было, поэтому здесь они идут без перевода (от одной фразы до 5,5 минут).

Сэмпл: http://sendfile.su/1421588

Качество: BDrip, 1080p
Контейнер: MKV
Формат 3D: OverUnder / Вертикальная стереопара
Порядок ракурсов: левый ракурс первый
Видео кодек: x264
Аудио кодек: AC3
Видео: AVC / High@L5.0 / 23,976 fps / 1920х2160 / 24,2 Мбит/сек
Аудио: Русский / AC3 / 48 KHz / 2 ch / 384 Kbps (VO - Ю. Онищенко) Edit by Ash61
Аудио 2: Английский / AC3 / 48 KHz / 5.1 ch / 640 Кбит/сек

ВНИМАНИЕ ! На встроенных ТВ-плеерах работать не будет!!!

ТВ Samsung в названии которого есть надпись Ultra HD , и LG Ultra HD 800 серии, LG C6P, Xiaomi Mi TV 2 воспроизводят полные стереопары встроенными плеерами
Железные плееры на которых воспроизводятся полные стереопары:Popcorn C-200 , Dune HD Smart D1 , Dune HD DUO , Dune HD Smart H1 , Dune HD Smart B1 , Dune HD Max , Dune HD TV-303D, Dune HD TV-102, Dune HD Base 3D, Philips HMP7001, Aura HD, MECOOL BB2
Чтобы изображение было на весь экран в плеере выставляем, если рип 1920х1600 - то выставляем 2.35:1 , если 1920х2160 - то выставляем 16:9
Общее
Уникальный идентификатор : 191889272404178952854449210911525325917 (0x905C8792186B89259BCE16FC074A4C5D)
Полное имя : E:\Galapagos With David Attenborough\Episode.1.Origin.Rip by SeRoGa00.mkv
Формат : Matroska
Версия формата : Version 2
Размер файла : 9,38 Гбайт
Продолжительность : 52 м.
Общий поток : 25,7 Мбит/сек
Дата кодирования : UTC 2018-05-25 02:14:16
Программа кодирования : mkvmerge v3.4.0 ('Rapunzel') сборка от May 15 2010 09:38:20
Библиотека кодирования : libebml v0.8.0 + libmatroska v0.9.0

Видео
Идентификатор : 1
Формат : AVC
Формат/Информация : Advanced Video Codec
Профиль формата : High@L5.0
Параметр CABAC формата : Да
Параметр ReFrames формата : 4 кадра
Идентификатор кодека : V_MPEG4/ISO/AVC
Продолжительность : 52 м.
Битрейт : 24,2 Мбит/сек
Ширина : 1920 пикселей
Высота : 2160 пикселей
Соотношение сторон : 0,889
Частота кадров : 23,976 кадра/сек
Цветовое пространство : YUV
Субдискретизация насыщенности : 4:2:0
Битовая глубина : 8 бит
Тип развёртки : Прогрессивная
Бит/(Пиксели*Кадры) : 0.243
Размер потока : 8,82 Гбайт (94%)
Заголовок : Rip by SeRoGa00
Библиотека кодирования : x264 core 155 r2901 7d0ff22
Настройки программы : cabac=1 / ref=4 / deblock=1:-3:-3 / analyse=0x3:0x113 / me=umh / subme=10 / psy=1 / psy_rd=1.00:0.15 / mixed_ref=1 / me_range=24 / chroma_me=1 / trellis=2 / 8x8dct=1 / cqm=0 / deadzone=21,11 / fast_pskip=1 / chroma_qp_offset=-3 / threads=18 / lookahead_threads=6 / sliced_threads=0 / nr=0 / decimate=0 / interlaced=0 / bluray_compat=0 / constrained_intra=0 / bframes=10 / b_pyramid=2 / b_adapt=2 / b_bias=0 / direct=3 / weightb=1 / open_gop=0 / weightp=2 / keyint=250 / keyint_min=23 / scenecut=40 / intra_refresh=0 / rc_lookahead=60 / rc=crf / mbtree=1 / crf=17.0 / qcomp=0.60 / qpmin=10 / qpmax=69 / qpstep=4 / vbv_maxrate=40000 / vbv_bufsize=40000 / crf_max=0.0 / nal_hrd=none / filler=0 / ip_ratio=1.40 / aq=1:1.00
Язык : English
Default : Нет
Forced : Нет

Аудио #1
Идентификатор : 2
Формат : AC-3
Формат/Информация : Audio Coding 3
Расширение режима : CM (complete main)
Параметр Endianness формата : Big
Идентификатор кодека : A_AC3
Продолжительность : 52 м.
Вид битрейта : Постоянный
Битрейт : 384 Кбит/сек
Каналы : 2 канала
Расположение каналов : Front: L R
Частота : 48,0 КГц
Битовая глубина : 16 бит
Метод сжатия : С потерями
Размер потока : 143 Мбайт (1%)
Язык : Russian
Default : Да
Forced : Нет

Аудио #2
Идентификатор : 3
Формат : AC-3
Формат/Информация : Audio Coding 3
Расширение режима : CM (complete main)
Параметр Endianness формата : Big
Идентификатор кодека : A_AC3
Продолжительность : 52 м.
Вид битрейта : Постоянный
Битрейт : 640 Кбит/сек
Каналы : 6 каналов
Расположение каналов : Front: L C R, Side: L R, LFE
Частота : 48,0 КГц
Битовая глубина : 16 бит
Метод сжатия : С потерями
Размер потока : 239 Мбайт (2%)
Язык : English
Default : Нет
Forced : Нет

Меню
00:00:00.000 : :1. Introduction
00:01:42.477 : :2. Isolation
00:05:41.341 : :3. Giant Tortoises
00:15:08.908 : :4. Hitchhikers
00:25:06.839 : :5. Currents
00:42:24.542 : :6. Penguins
скриншот  

скриншот  

скриншот  

скриншот  

скриншот  

скриншот  

скриншот  

скриншот  

скриншот  
piratbit.org



Скачать Галапагосы с Дэвидом Аттенборо в 3Д через торрент http://i59.fastpic.ru/big/2014/0116/88/68d2f1dbb277195dac361e56731dd288.jpg Скачать фильм Галапагосы с Дэвидом Аттенборо в 3Д через торрент бесплантно в хорошем качестве Описание: Галапагосские острова — один из самых необычных и красивых архипелагов, место на Земле, где обитают удивительные существа, ... 10 10 1
Info! Золотая раздача, скачанное не засчитывается.
Торрент: Зарегистрирован [2018-05-26 05:27] · скачан: 11 раз
Статус: √ проверено
Размер: 29.26 GB
Как cкачать? Как скачать Галапагосы с Дэвидом Аттенборо в 3Д через торрент | qTorrent


>> Регистрируемся здесь <<






Отзывы и комментарии о схеме читаем и пишем здесь: ---> Отзывы и комментарии о схеме

Новые благодарочки в телеграм довольных пользователей:
скриншот   скриншот   скриншот   скриншот   скриншот
    Дорогой пользователь! Огромная просьба, поблагодарите релизера, оцените раздачу и оставьте свои комментарий, если Вы скачали Галапагосы с Дэвидом Аттенборо в 3Д через торрент бесплатно! Внесите свою лепту в развитие PiratBit!
    Комментировать посты могут только пользователи прошедшие не сложную регистрацию
    Показать сообщения:    

    Галапагосы с Дэвидом Аттенборо в 3Д через торрент
    Скачать бесплатно Галапагосы с Дэвидом Аттенборо в 3Д
    Галапагосы с Дэвидом Аттенборо в 3Д скачать торрент
    Галапагосы с Дэвидом Аттенборо в 3Д смотреть онлайн
    Cкачать фильм Галапагосы с Дэвидом Аттенборо в 3Д бесплатно
    Галапагосы с Дэвидом Аттенборо в 3Д скачать торрент в хорошем качестве
    Галапагосы с Дэвидом Аттенборо в 3Д смотреть онлайн бесплатно в хорошем качестве


    Вы не можете начинать темы
    Вы не можете отвечать на сообщения
    Вы не можете редактировать свои сообщения
    Вы не можете удалять свои сообщения
    Вы не можете голосовать в опросах
    Вы не можете прикреплять файлы к сообщениям
    Вы можете скачивать файлы