2 сезон

iTunes

WEBRip

1

2 сезон

iTunes

1 сезон

1 сезон

RePack

30

Новинка

ВАЖНО

ИГРА 18+

pack

RePack

MK11
pack

Легкие деньги

RePack

jed

RePack

fifa19

RePack

RDR2

RePack

NEED FOR SPEED™ PAYBACK

4 сезон

9 сезон

Бесстыжие 9 сезон

Все сериалы

все сериалы на PB.wtf

RePack

FAR CRY 5

Anonymous, доброй ночи, мы не успеваем собрать деньги на оплату серверов за февраль, помогите нам пожалуйста в это трудное время. В качестве благодарности мы отключим Вам всю рекламу на сайте (укажите свой ник в строку Ваше имя)!

×
  
Magnet ссылка

Кольцо с рубином / Обручка з рубіном / Сезон: 1 / Серии: 1-95 из 95 (Юлия Иващенко) [2017, Мелодрама, WEBRip] piratbit.org

Кольцо с рубином через торрент piratbit.org

Размер: 41.62 GB | Добавлен: 2 года 9 мес. назад | Торрент скачан:8 раз
Скачать  

26-05-2018 06:15 Кольцо с рубином Скачать торрент  

Кольцо с рубином / Обручка з рубіномГод выпуска: 2017
Страна: Украина
Жанр: Мелодрама
Продолжительность: ~ 00:50:00 серия
Язык: Украинский
Субтитры: Русские форсированные

Режиссер: Юлия Иващенко

В ролях:

Дария Барихашвили, Мария Пустовая, Леся Островская, Владимир Захарченко, Антон Мухарский, Дмитрий Оскин, Евгения Солодовник, Анна Васильева (II), Лорена Колибабчук, Вадим Павленко, Всеволод Шекита, Владимир Гончаров (II), Григорий Бакланов (II), Александр Боднар

Описание:

История двух сестёр Ани и Яны, привычную жизнь которых в одно мгновение трагически перечеркивает автомобильная авария. Девушки направлялись в Киев: Аня ехала на репетицию собственной свадьбы, а Яна спешила на кастинг телешоу. Вопреки неутешительным прогнозам врачей, после автокатастрофы обе девушки выжили, но впали в кому. Из-за серьезных повреждений их лица разорвало стеклом – ни врачи, ни родственники не смогли опознать, кто из сестер Яна, а кто Аня. Решающую роль сыграло кольцо с рубином Ани, которое по роковым стечениям обстоятельств в момент ДТП было на безымянном пальце Яны. Сестер перепутали.

Качество: WEBRip
Формат: AVI

Видео: XviD build 73, 704x400 (16:9), 25.000 fps, ~ 1110 Kbps (~ 0.155 bit/pixel)
Аудио: 48.0 kHz, MP3, 2/0 ch, 128 kbps
скриншот   скриншот   скриншот   скриншот  

Общее
Полное имя : F:\Koljco.S.Rubinom.2017.XviD.WEBRip.GeneralFilm\Koljco.S.Rubinom.E01.avi
Формат : AVI
Формат/Информация : Audio Video Interleave
Размер файла : 446 Мбайт
Продолжительность : 50 м. 5 с.
Общий поток : 1244 Кбит/сек
Программа кодирования : VirtualDubMod 1.5.10.3 | www.virtualdub-fr.org || (build 2550/release)
Библиотека кодирования : VirtualDubMod build 2550/release

Видео
Идентификатор : 0
Формат : MPEG-4 Visual
Профиль формата : Advanced Simple@L5
Параметр BVOP формата : 1
Параметр QPel формата : Нет
Параметр GMC формата : Без точки перехода
Параметр матрицы формата : Выборочная
Идентификатор кодека : XVID
Идентификатор кодека/Подсказка : XviD
Продолжительность : 50 м. 5 с.
Битрейт : 1106 Кбит/сек
Ширина : 704 пикселя
Высота : 400 пикселей
Соотношение сторон : 16:9
Частота кадров : 25,000 кадров/сек
Цветовое пространство : YUV
Субдискретизация насыщенности : 4:2:0
Битовая глубина : 8 бит
Тип развёртки : Прогрессивная
Метод сжатия : С потерями
Бит/(Пиксели*Кадры) : 0.157
Размер потока : 396 Мбайт (89%)
Библиотека кодирования : XviD 73

Аудио
Идентификатор : 1
Формат : MPEG Audio
Версия формата : Version 1
Профиль формата : Layer 3
Идентификатор кодека : 55
Идентификатор кодека/Подсказка : MP3
Продолжительность : 50 м. 5 с.
Вид битрейта : Постоянный
Битрейт : 128 Кбит/сек
Каналы : 2 канала
Частота : 48,0 КГц
Метод сжатия : С потерями
Размер потока : 45,9 Мбайт (10%)
Выравнивание : Соединение по промежуткам
Продолжительность промежутка : 40 мс. (1,00 видеокадр)
Время предзагрузки промежутка : 504 мс.
Библиотека кодирования : LAME3.99r
Настройки программы : -m s -V 4 -q 0 -lowpass 17 -b 128

piratbit.org



Скачать Кольцо с рубином через торрент http://i101.fastpic.ru/big/2018/0328/45/cd07a2280e1f183d7e8afdd188b84345.jpg Скачать фильм Кольцо с рубином через торрент бесплантно в хорошем качестве Описание: История двух сестёр Ани и Яны, привычную жизнь которых в одно мгновение трагически перечеркивает автомобильная авария. Девушки ... 10 10 2
Info! Золотая раздача, скачанное не засчитывается.
Торрент: Зарегистрирован [2018-05-26 06:15] · скачан: 8 раз
Статус: √ проверено
Размер: 41.62 GB
Как cкачать? Как скачать Кольцо с рубином через торрент | UTorrent

28-11-2019 20:33  

Отключить всю рекламу на сайте

    Дорогой пользователь! Огромная просьба, поблагодарите релизера, оцените раздачу и оставьте свои комментарий, если Вы скачали Кольцо с рубином через торрент бесплатно! Внесите свою лепту в развитие PiratBit!
    Комментировать посты могут только пользователи прошедшие не сложную регистрацию
    Показать сообщения:    

    Кольцо с рубином через торрент
    Скачать бесплатно Кольцо с рубином
    Кольцо с рубином скачать торрент
    Кольцо с рубином смотреть онлайн
    Cкачать фильм Кольцо с рубином бесплатно
    Кольцо с рубином скачать торрент в хорошем качестве
    Кольцо с рубином смотреть онлайн бесплатно в хорошем качестве


    Вы не можете начинать темы
    Вы не можете отвечать на сообщения
    Вы не можете редактировать свои сообщения
    Вы не можете удалять свои сообщения
    Вы не можете голосовать в опросах
    Вы не можете прикреплять файлы к сообщениям
    Вы можете скачивать файлы