Достать ножи: Стеклянная луковица

MVO

Добыча

Дубляж

Уэнсдэй

1 сезон

Тор

Дубляж

13 клиническая

1 сезон

Жестокая ночь

MVO

Одни из нас

1 сезон

Deluxe

pack

Рекомендуем

30

Пиратка

ВАЖНО

ВАЖНО

Ghostwire

Пиратка

jed

RePack

nioh2

RePack

RDR2

RePack

NEED FOR SPEED™ PAYBACK

RePack

скачать торрент

Кинопоиск HD

Острые козырьки 6 сезон

6 сезон

FAR CRY 6

RePack

скачать торрент

Лицензия

скачать торрент

MVO

1

1 сезон

скачать торрент

1 сезон

скачать торрент

Лицензия

  

Джон Уик (Дилогия) / John Wick (Dilogy) (Чад Стахелски, Дэвид Литч) [2014-2017, боевик, триллер, криминал, UHD BDRemux 2160p] Дубляж + 7xAVO

Джон Уик через торрент piratbit.org

Размер: 148.7 GB | Добавлен: 4 года 8 мес. назад | Торрент скачан:54 раза
Смотреть онлайн | Скачать | Поддержите нас   

27-05-2018 03:06 Джон Уик Скачать торрент  

Джон Уик 1-2
Джон Уик / John Wick«Его лучше не трогать»
Год выпуска: 2014
Страна: США, Китай
Жанр: боевик, триллер, криминал
Продолжительность: 01:41:11
Перевод: Дублированный, авторский
Субтитры: Русские, английские
Режиссер: Чад Стахелски , Дэвид Литч
В ролях:

Киану Ривз (John Wick), Микаэл Нюквист (Viggo Tarasov), Алфи Аллен (Iosef Tarasov), Уиллем Дефо (Marcus), Дин Уинтерс (Avi), Эдрианн Палики (Ms. Perkins), Омер Барнеа (Gregori), Тоби Леонард Мур (Victor), Дэниэл Бернхард (Kirill), Бриджет Мойнэхэн (Helen), Джон Легуизамо (Aurelio), Иэн МакШейн (Winston)
Описание:
Джон Уик, на первый взгляд, - самый обычный среднестатистический американец, который ведет спокойную мирную жизнь. Однако мало кто знает, что он был наёмным убийцей, причём одним из лучших профессионалов в своём деле.
Рейтинг:

MPAA: R - Лицам до 17 лет обязательно присутствие взрослого
Качество: UHD BDRemux 2160p
Формат: MKV
Видео: HEVC, HDR, 57974 Кбит/с, 3840x2160
Аудио 1: Russian AC3 / 5.1 / 48 kHz / 384 kbps / 16 bits |Дубляж, Пифагор|
Аудио 2: Russian DTS-HD Master Audio / 7.1 / 48 kHz / 4366 kbps / 24-bit |А. Гаврилов|
Аудио 3: Russian DTS-HD Master Audio / 7.1 / 48 kHz / 4327 kbps / 24-bit |Ю. Живов|
Аудио 4: Russian DTS-HD Master Audio / 7.1 / 48 kHz / 4413 kbps / 24-bit |Л. Володарский|
Аудио 5: Russian DTS-HD Master Audio / 7.1 / 48 kHz / 4766 kbps / 24-bit |Д. Есарев|
Аудио 6: Russian DTS-HD Master Audio / 7.1 / 48 kHz / 4198 kbps / 24-bit |А. Матвеев|
Аудио 7: Russian DTS-HD Master Audio / 7.1 / 48 kHz / 4194 kbps / 24-bit |Д. Нурмухаметов|
Аудио 8: English DTS-HD Master Audio / 7.1 / 48 kHz / 4012 kbps / 24-bit |original|
Аудио 9: English AC3 / 2.0 / 48 kHz / 224 kbps / 16 bits |Commentary by Chad Stahelski and David Leitch|
Навигация по главам: есть
Общее
Уникальный идентификатор : 241763854515634694802869229042771575467 (0xB5E20651F77FC5D2B1EFD3C861E242AB)
Полное имя : G:\HD\Джон Уик.2014.UHD.BluRay.Remux.2160p.mkv
Формат : Matroska
Версия формата : Version 4 / Version 2
Размер файла : 62,8 Гбайт
Продолжительность : 1 ч. 41 м.
Общий поток : 88,9 Мбит/сек
Дата кодирования : UTC 2017-12-02 13:58:08
Программа кодирования : mkvmerge v18.0.0 ('Apricity') 64-bit
Библиотека кодирования : libebml v1.3.5 + libmatroska v1.4.8
Attachments : poster.jpg

Видео
Идентификатор : 1
Формат : HEVC
Формат/Информация : High Efficiency Video Coding
Профиль формата : Main 10@L5.1@High
Идентификатор кодека : V_MPEGH/ISO/HEVC
Продолжительность : 1 ч. 41 м.
Битрейт : 58,0 Мбит/сек
Ширина : 3840 пикселей
Высота : 2160 пикселей
Соотношение сторон : 16:9
Режим частоты кадров : Постоянный
Частота кадров : 23,976 (24000/1001) кадра/сек
Цветовое пространство : YUV
Субдискретизация насыщенности : 4:2:0 (Type 2)
Битовая глубина : 10 бит
Бит/(Пиксели*Кадры) : 0.292
Размер потока : 41,0 Гбайт (65%)
Библиотека кодирования : ATEME Titan File 3.7.9 (4.7.9.0)
Default : Да
Forced : Нет
Цветовой диапазон : Limited
Основные цвета : BT.2020
Характеристики трансфера : PQ
Коэффициенты матрицы : BT.2020 non-constant
MasteringDisplay_ColorPrimaries : R: x=0.680000 y=0.320000, G: x=0.265000 y=0.690000, B: x=0.150000 y=0.060000, White point: x=0.312700 y=0.329000
MasteringDisplay_Luminance : min: 0.0000 cd/m2, max: 1000.0000 cd/m2
MaxCLL : 1000 cd/m2
MaxFALL : 169 cd/m2

Аудио #1
Идентификатор : 2
Формат : AC-3
Формат/Информация : Audio Coding 3
Идентификатор кодека : A_AC3
Продолжительность : 1 ч. 41 м.
Вид битрейта : Постоянный
Битрейт : 384 Кбит/сек
Каналы : 6 каналов
Расположение каналов : Front: L C R, Side: L R, LFE
Частота : 48,0 КГц
Частота кадров : 31,250 кадров/сек (1536 SPF)
Битовая глубина : 16 бит
Метод сжатия : С потерями
Размер потока : 278 Мбайт (0%)
Заголовок : Дубляж, Пифагор
Язык : Russian
ServiceKind/String : Complete Main
Default : Да
Forced : Нет

Аудио #2
Идентификатор : 3
Формат : DTS
Формат/Информация : Digital Theater Systems
Профиль формата : MA / Core
Идентификатор кодека : A_DTS
Продолжительность : 1 ч. 41 м.
Вид битрейта : Переменный / Постоянный
Битрейт : 4366 Кбит/сек / 1509 Кбит/сек
Каналы : 8 каналов / 6 каналов
Расположение каналов : Front: L C R, Side: L R, Back: L R, LFE / Front: L C R, Side: L R, LFE
Частота : 48,0 КГц
Частота кадров : 93,750 кадра/сек (512 SPF)
Битовая глубина : 24 бит
Метод сжатия : Без потерь / Lossy
Размер потока : 3,09 Гбайт (5%)
Заголовок : А. Гаврилов
Язык : Russian
Default : Нет
Forced : Нет

Аудио #3
Идентификатор : 4
Формат : DTS
Формат/Информация : Digital Theater Systems
Профиль формата : MA / Core
Идентификатор кодека : A_DTS
Продолжительность : 1 ч. 41 м.
Вид битрейта : Переменный / Постоянный
Битрейт : 4327 Кбит/сек / 1509 Кбит/сек
Каналы : 8 каналов / 6 каналов
Расположение каналов : Front: L C R, Side: L R, Back: L R, LFE / Front: L C R, Side: L R, LFE
Частота : 48,0 КГц
Частота кадров : 93,750 кадра/сек (512 SPF)
Битовая глубина : 24 бит
Метод сжатия : Без потерь / Lossy
Размер потока : 3,06 Гбайт (5%)
Заголовок : Ю. Живов
Язык : Russian
Default : Нет
Forced : Нет

Аудио #4
Идентификатор : 5
Формат : DTS
Формат/Информация : Digital Theater Systems
Профиль формата : MA / Core
Идентификатор кодека : A_DTS
Продолжительность : 1 ч. 41 м.
Вид битрейта : Переменный / Постоянный
Битрейт : 4413 Кбит/сек / 1509 Кбит/сек
Каналы : 8 каналов / 6 каналов
Расположение каналов : Front: L C R, Side: L R, Back: L R, LFE / Front: L C R, Side: L R, LFE
Частота : 48,0 КГц
Частота кадров : 93,750 кадра/сек (512 SPF)
Битовая глубина : 24 бит
Метод сжатия : Без потерь / Lossy
Размер потока : 3,12 Гбайт (5%)
Заголовок : Л. Володарский
Язык : Russian
Default : Нет
Forced : Нет

Аудио #5
Идентификатор : 6
Формат : DTS
Формат/Информация : Digital Theater Systems
Профиль формата : MA / Core
Идентификатор кодека : A_DTS
Продолжительность : 1 ч. 41 м.
Вид битрейта : Переменный / Постоянный
Битрейт : 4766 Кбит/сек / 1509 Кбит/сек
Каналы : 8 каналов / 6 каналов
Расположение каналов : Front: L C R, Side: L R, Back: L R, LFE / Front: L C R, Side: L R, LFE
Частота : 48,0 КГц
Частота кадров : 93,750 кадра/сек (512 SPF)
Битовая глубина : 24 бит
Метод сжатия : Без потерь / Lossy
Размер потока : 3,37 Гбайт (5%)
Заголовок : Д. Есарев
Язык : Russian
Default : Нет
Forced : Нет

Аудио #6
Идентификатор : 7
Формат : DTS
Формат/Информация : Digital Theater Systems
Профиль формата : MA / Core
Идентификатор кодека : A_DTS
Продолжительность : 1 ч. 41 м.
Вид битрейта : Переменный / Постоянный
Битрейт : 4198 Кбит/сек / 1509 Кбит/сек
Каналы : 8 каналов / 6 каналов
Расположение каналов : Front: L C R, Side: L R, Back: L R, LFE / Front: L C R, Side: L R, LFE
Частота : 48,0 КГц
Частота кадров : 93,750 кадра/сек (512 SPF)
Битовая глубина : 24 бит
Метод сжатия : Без потерь / Lossy
Размер потока : 2,97 Гбайт (5%)
Заголовок : А. Матвеев
Язык : Russian
Default : Нет
Forced : Нет

Аудио #7
Идентификатор : 8
Формат : DTS
Формат/Информация : Digital Theater Systems
Профиль формата : MA / Core
Идентификатор кодека : A_DTS
Продолжительность : 1 ч. 41 м.
Вид битрейта : Переменный / Постоянный
Битрейт : 4194 Кбит/сек / 1509 Кбит/сек
Каналы : 8 каналов / 6 каналов
Расположение каналов : Front: L C R, Side: L R, Back: L R, LFE / Front: L C R, Side: L R, LFE
Частота : 48,0 КГц
Частота кадров : 93,750 кадра/сек (512 SPF)
Битовая глубина : 24 бит
Метод сжатия : Без потерь / Lossy
Размер потока : 2,96 Гбайт (5%)
Заголовок : Д. Нурмухаметов
Язык : Russian
Default : Нет
Forced : Нет

Аудио #8
Идентификатор : 9
Формат : DTS
Формат/Информация : Digital Theater Systems
Профиль формата : MA / Core
Идентификатор кодека : A_DTS
Продолжительность : 1 ч. 41 м.
Вид битрейта : Переменный / Постоянный
Битрейт : 4012 Кбит/сек / 1509 Кбит/сек
Каналы : 8 каналов / 6 каналов
Расположение каналов : Front: L C R, Side: L R, Back: L R, LFE / Front: L C R, Side: L R, LFE
Частота : 48,0 КГц
Частота кадров : 93,750 кадра/сек (512 SPF)
Битовая глубина : 24 бит
Метод сжатия : Без потерь / Lossy
Размер потока : 2,84 Гбайт (5%)
Язык : English
Default : Нет
Forced : Нет

Аудио #9
Идентификатор : 10
Формат : AC-3
Формат/Информация : Audio Coding 3
Идентификатор кодека : A_AC3
Продолжительность : 1 ч. 41 м.
Вид битрейта : Постоянный
Битрейт : 224 Кбит/сек
Каналы : 2 канала
Расположение каналов : Front: L R
Частота : 48,0 КГц
Частота кадров : 31,250 кадров/сек (1536 SPF)
Битовая глубина : 16 бит
Метод сжатия : С потерями
Размер потока : 162 Мбайт (0%)
Заголовок : Commentary by Chad Stahelski and David Leitch
Язык : English
ServiceKind/String : Complete Main
Default : Нет
Forced : Нет

Текст #1
Идентификатор : 11
Формат : UTF-8
Идентификатор кодека : S_TEXT/UTF8
Идентификатор кодека/Информация : UTF-8 Plain Text
Продолжительность : 1 ч. 40 м.
Битрейт : 33 бит/сек
ElementCount : 550
Размер потока : 24,9 Кбайт (0%)
Заголовок : full
Язык : Russian
Default : Нет
Forced : Нет

Текст #2
Идентификатор : 12
Формат : UTF-8
Идентификатор кодека : S_TEXT/UTF8
Идентификатор кодека/Информация : UTF-8 Plain Text
Продолжительность : 1 ч. 34 м.
Битрейт : 39 бит/сек
ElementCount : 619
Размер потока : 27,2 Кбайт (0%)
Заголовок : А. Матвеев, censored
Язык : Russian
Default : Нет
Forced : Нет

Текст #3
Идентификатор : 13
Формат : UTF-8
Идентификатор кодека : S_TEXT/UTF8
Идентификатор кодека/Информация : UTF-8 Plain Text
Продолжительность : 1 ч. 34 м.
Битрейт : 39 бит/сек
ElementCount : 618
Размер потока : 27,2 Кбайт (0%)
Заголовок : А. Матвеев, uncensored
Язык : Russian
Default : Нет
Forced : Нет

Текст #4
Идентификатор : 14
Формат : UTF-8
Идентификатор кодека : S_TEXT/UTF8
Идентификатор кодека/Информация : UTF-8 Plain Text
Продолжительность : 1 ч. 33 м.
Битрейт : 40 бит/сек
ElementCount : 633
Размер потока : 27,9 Кбайт (0%)
Заголовок : Д. Нурмухаметов
Язык : Russian
Default : Нет
Forced : Нет

Текст #5
Идентификатор : 15
Формат : UTF-8
Идентификатор кодека : S_TEXT/UTF8
Идентификатор кодека/Информация : UTF-8 Plain Text
Продолжительность : 1 ч. 14 м.
Битрейт : 2 бит/сек
ElementCount : 69
Размер потока : 1,36 Кбайт (0%)
Заголовок : forced
Язык : English
Default : Нет
Forced : Нет

Текст #6
Идентификатор : 16
Формат : UTF-8
Идентификатор кодека : S_TEXT/UTF8
Идентификатор кодека/Информация : UTF-8 Plain Text
Продолжительность : 1 ч. 33 м.
Битрейт : 23 бит/сек
ElementCount : 625
Размер потока : 16,2 Кбайт (0%)
Заголовок : full
Язык : English
Default : Нет
Forced : Нет

Текст #7
Идентификатор : 17
Формат : UTF-8
Идентификатор кодека : S_TEXT/UTF8
Идентификатор кодека/Информация : UTF-8 Plain Text
Продолжительность : 1 ч. 40 м.
Битрейт : 30 бит/сек
ElementCount : 874
Размер потока : 22,6 Кбайт (0%)
Заголовок : SDH
Язык : English
Default : Нет
Forced : Нет

Текст #8
Идентификатор : 18
Формат : UTF-8
Идентификатор кодека : S_TEXT/UTF8
Идентификатор кодека/Информация : UTF-8 Plain Text
Продолжительность : 1 ч. 40 м.
Битрейт : 41 бит/сек
ElementCount : 874
Размер потока : 30,6 Кбайт (0%)
Заголовок : SDH-Colored
Язык : English
Default : Нет
Forced : Нет

Меню
00:00:00.000 : en:00:00:00.000
00:04:56.713 : en:00:04:56.713
00:12:21.074 : en:00:12:21.074
00:17:06.943 : en:00:17:06.943
00:26:24.374 : en:00:26:24.374
00:32:39.457 : en:00:32:39.457
00:36:23.807 : en:00:36:23.807
00:42:15.241 : en:00:42:15.241
00:45:32.480 : en:00:45:32.480
00:55:01.715 : en:00:55:01.715
00:59:26.772 : en:00:59:26.772
01:06:12.635 : en:01:06:12.635
01:14:15.117 : en:01:14:15.117
01:19:12.247 : en:01:19:12.247
01:27:28.994 : en:01:27:28.994
01:32:23.997 : en:01:32:23.997
Джон Уик 2 / John Wick: Chapter Two

Год выпуска: 2017
Страна: США, Гонконг
Жанр: боевик, триллер, криминал
Продолжительность: 02:02:23
Перевод: Дублированный, авторский
Субтитры: русские (forced, full), английские (full, SDH, SDH-Colored)
Режиссер: Чад Стахелски
В ролях:

Киану Ривз, Риккардо Скамарчо, Иэн МакШейн, Руби Роуз, Коммон, Клаудия Джерини, Лэнс Реддик, Лоренс Фишбёрн, Тобиаш Сигал, Джон Легуизамо, Бриджет Мойнэхэн, Томас Садоски
Описание:
Когда бывший коллега Джона решает взять под свой контроль таинственную гильдию убийц, Уик вынужден выйти из отставки. Ведомый кровавой клятвой Джон отправляется в Рим, где ему придется сразиться с одними из самых опасных киллеров в мире.
Рейтинг:

MPAA: R - Лицам до 17 лет обязательно присутствие взрослого
Качество: UHD BDRemux 2160p
Формат: MKV
Видео: HEVC, HDR, 77948 Кбит/с, 3840x2160, 23.976 кадр/с
Аудио 1: Russian AC3 / 5.1 / 48 kHz / 384 kbps / 16 bits |Дубляж, Пифагор|
Аудио 2: Russian DTS-HD Master Audio / 7.1 / 48 kHz / 4392 kbps / 24-bit |Д. Есарев|
Аудио 3: Russian DTS-HD Master Audio / 7.1 / 48 kHz / 4326 kbps / 24-bit |Е. Солодухин|
Аудио 4: Russian DTS-HD Master Audio / 7.1 / 48 kHz / 4396 kbps / 24-bit |А. Матвеев|
Аудио 5: Russian DTS-HD Master Audio / 7.1 / 48 kHz / 4331 kbps / 24-bit |Д. Нурмухаметов|
Аудио 6: English DTS-HD Master Audio / 7.1 / 48 kHz / 4457 kbps / 24-bit |original|
Аудио 7: English AC3 / 2.0 / 48 kHz / 224 kbps / 16 bits |Commentary with Chad Stahelski & Keanu Reeves|
Навигация по главам: есть
Общее
Уникальный идентификатор : 244235285861372763772311784861503578955 (0xB7BE014B107224648493B28EC8B3E34B)
Полное имя : G:\HD\Джон Уик 2.2017.UHD.BluRay.Remux.2160p.mkv
Формат : Matroska
Версия формата : Version 4 / Version 2
Размер файла : 85,9 Гбайт
Продолжительность : 2 ч. 2 м.
Общий поток : 100 Мбит/сек
Дата кодирования : UTC 2017-10-07 19:02:24
Программа кодирования : mkvmerge v16.0.0 ('Protest') 64-bit
Библиотека кодирования : libebml v1.3.5 + libmatroska v1.4.8
Attachments : poster.jpg

Видео
Идентификатор : 1
Формат : HEVC
Формат/Информация : High Efficiency Video Coding
Профиль формата : Main 10@L5.1@High
Идентификатор кодека : V_MPEGH/ISO/HEVC
Продолжительность : 2 ч. 2 м.
Битрейт : 77,9 Мбит/сек
Ширина : 3840 пикселей
Высота : 2160 пикселей
Соотношение сторон : 16:9
Режим частоты кадров : Постоянный
Частота кадров : 23,976 (24000/1001) кадра/сек
Цветовое пространство : YUV
Субдискретизация насыщенности : 4:2:0 (Type 2)
Битовая глубина : 10 бит
Бит/(Пиксели*Кадры) : 0.392
Размер потока : 66,6 Гбайт (78%)
Библиотека кодирования : ATEME Titan File 3.7.9 (4.7.9.0)
Default : Да
Forced : Нет
Цветовой диапазон : Limited
Основные цвета : BT.2020
Характеристики трансфера : PQ
Коэффициенты матрицы : BT.2020 non-constant
MasteringDisplay_ColorPrimaries : R: x=0.680000 y=0.320000, G: x=0.265000 y=0.690000, B: x=0.150000 y=0.060000, White point: x=0.312700 y=0.329000
MasteringDisplay_Luminance : min: 0.0000 cd/m2, max: 1000.0000 cd/m2
MaxCLL : 1000 cd/m2
MaxFALL : 510 cd/m2

Аудио #1
Идентификатор : 2
Формат : AC-3
Формат/Информация : Audio Coding 3
Параметр Endianness формата : Big
Идентификатор кодека : A_AC3
Продолжительность : 2 ч. 2 м.
Вид битрейта : Постоянный
Битрейт : 384 Кбит/сек
Каналы : 6 каналов
Расположение каналов : Front: L C R, Side: L R, LFE
Частота : 48,0 КГц
Частота кадров : 31,250 кадров/сек (1536 SPF)
Битовая глубина : 16 бит
Метод сжатия : С потерями
Размер потока : 336 Мбайт (0%)
Заголовок : Дубляж, Пифагор
Язык : Russian
ServiceKind/String : Complete Main
Default : Да
Forced : Нет

Аудио #2
Идентификатор : 3
Формат : DTS
Формат/Информация : Digital Theater Systems
Профиль формата : MA / Core
Режим : 16
Параметр Endianness формата : Big
Идентификатор кодека : A_DTS
Продолжительность : 2 ч. 2 м.
Вид битрейта : Переменный / Постоянный
Битрейт : 4392 Кбит/сек / 1509 Кбит/сек
Каналы : 8 каналов / 6 каналов
Расположение каналов : Front: L C R, Side: L R, Back: L R, LFE / Front: L C R, Side: L R, LFE
Частота : 48,0 КГц
Частота кадров : 93,750 кадра/сек (512 SPF)
Битовая глубина : 24 бит
Метод сжатия : Без потерь / Lossy
Размер потока : 3,75 Гбайт (4%)
Заголовок : Д. Есарев
Язык : Russian
Default : Нет
Forced : Нет

Аудио #3
Идентификатор : 4
Формат : DTS
Формат/Информация : Digital Theater Systems
Профиль формата : MA / Core
Режим : 16
Параметр Endianness формата : Big
Идентификатор кодека : A_DTS
Продолжительность : 2 ч. 2 м.
Вид битрейта : Переменный / Постоянный
Битрейт : 4326 Кбит/сек / 1509 Кбит/сек
Каналы : 8 каналов / 6 каналов
Расположение каналов : Front: L C R, Side: L R, Back: L R, LFE / Front: L C R, Side: L R, LFE
Частота : 48,0 КГц
Частота кадров : 93,750 кадра/сек (512 SPF)
Битовая глубина : 24 бит
Метод сжатия : Без потерь / Lossy
Размер потока : 3,70 Гбайт (4%)
Заголовок : Е. Солодухин
Язык : Russian
Default : Нет
Forced : Нет

Аудио #4
Идентификатор : 5
Формат : DTS
Формат/Информация : Digital Theater Systems
Профиль формата : MA / Core
Режим : 16
Параметр Endianness формата : Big
Идентификатор кодека : A_DTS
Продолжительность : 2 ч. 2 м.
Вид битрейта : Переменный / Постоянный
Битрейт : 4396 Кбит/сек / 1509 Кбит/сек
Каналы : 8 каналов / 6 каналов
Расположение каналов : Front: L C R, Side: L R, Back: L R, LFE / Front: L C R, Side: L R, LFE
Частота : 48,0 КГц
Частота кадров : 93,750 кадра/сек (512 SPF)
Битовая глубина : 24 бит
Метод сжатия : Без потерь / Lossy
Размер потока : 3,76 Гбайт (4%)
Заголовок : А. Матвеев
Язык : Russian
Default : Нет
Forced : Нет

Аудио #5
Идентификатор : 6
Формат : DTS
Формат/Информация : Digital Theater Systems
Профиль формата : MA / Core
Режим : 16
Параметр Endianness формата : Big
Идентификатор кодека : A_DTS
Продолжительность : 2 ч. 2 м.
Вид битрейта : Переменный / Постоянный
Битрейт : 4331 Кбит/сек / 1509 Кбит/сек
Каналы : 8 каналов / 6 каналов
Расположение каналов : Front: L C R, Side: L R, Back: L R, LFE / Front: L C R, Side: L R, LFE
Частота : 48,0 КГц
Частота кадров : 93,750 кадра/сек (512 SPF)
Битовая глубина : 24 бит
Метод сжатия : Без потерь / Lossy
Размер потока : 3,70 Гбайт (4%)
Заголовок : Д. Нурмухаметов
Язык : Russian
Default : Нет
Forced : Нет

Аудио #6
Идентификатор : 7
Формат : DTS
Формат/Информация : Digital Theater Systems
Профиль формата : MA / Core
Режим : 16
Параметр Endianness формата : Big
Идентификатор кодека : A_DTS
Продолжительность : 2 ч. 2 м.
Вид битрейта : Переменный / Постоянный
Битрейт : 4457 Кбит/сек / 1509 Кбит/сек
Каналы : 8 каналов / 6 каналов
Расположение каналов : Front: L C R, Side: L R, Back: L R, LFE / Front: L C R, Side: L R, LFE
Частота : 48,0 КГц
Частота кадров : 93,750 кадра/сек (512 SPF)
Битовая глубина : 24 бит
Метод сжатия : Без потерь / Lossy
Размер потока : 3,81 Гбайт (4%)
Язык : English
Default : Нет
Forced : Нет

Аудио #7
Идентификатор : 8
Формат : AC-3
Формат/Информация : Audio Coding 3
Режим : Dolby Digital
Параметр Endianness формата : Big
Идентификатор кодека : A_AC3
Продолжительность : 2 ч. 2 м.
Вид битрейта : Постоянный
Битрейт : 224 Кбит/сек
Каналы : 2 канала
Расположение каналов : Front: L R
Частота : 48,0 КГц
Частота кадров : 31,250 кадров/сек (1536 SPF)
Битовая глубина : 16 бит
Метод сжатия : С потерями
Размер потока : 196 Мбайт (0%)
Заголовок : Commentary with Chad Stahelski & Keanu Reeves
Язык : English
ServiceKind/String : Complete Main
Default : Нет
Forced : Нет

Текст #1
Идентификатор : 9
Формат : UTF-8
Идентификатор кодека : S_TEXT/UTF8
Идентификатор кодека/Информация : UTF-8 Plain Text
Продолжительность : 1 ч. 53 м.
Битрейт : 0 бит/сек
ElementCount : 12
Размер потока : 743 байт (0%)
Заголовок : forced
Язык : Russian
Default : Да
Forced : Нет

Текст #2
Идентификатор : 10
Формат : UTF-8
Идентификатор кодека : S_TEXT/UTF8
Идентификатор кодека/Информация : UTF-8 Plain Text
Продолжительность : 1 ч. 53 м.
Битрейт : 37 бит/сек
ElementCount : 500
Размер потока : 30,9 Кбайт (0%)
Заголовок : А. Матвеев
Язык : Russian
Default : Нет
Forced : Нет

Текст #3
Идентификатор : 11
Формат : UTF-8
Идентификатор кодека : S_TEXT/UTF8
Идентификатор кодека/Информация : UTF-8 Plain Text
Продолжительность : 1 ч. 49 м.
Битрейт : 21 бит/сек
ElementCount : 669
Размер потока : 17,6 Кбайт (0%)
Заголовок : full
Язык : English
Default : Нет
Forced : Нет

Текст #4
Идентификатор : 12
Формат : UTF-8
Идентификатор кодека : S_TEXT/UTF8
Идентификатор кодека/Информация : UTF-8 Plain Text
Продолжительность : 1 ч. 54 м.
Битрейт : 26 бит/сек
ElementCount : 931
Размер потока : 22,5 Кбайт (0%)
Заголовок : SDH
Язык : English
Default : Нет
Forced : Нет

Текст #5
Идентификатор : 13
Формат : UTF-8
Идентификатор кодека : S_TEXT/UTF8
Идентификатор кодека/Информация : UTF-8 Plain Text
Продолжительность : 1 ч. 54 м.
Битрейт : 37 бит/сек
ElementCount : 929
Размер потока : 31,8 Кбайт (0%)
Заголовок : SDH-Colored
Язык : English
Default : Нет
Forced : Нет

Меню
00:00:00.000 : en:Chapter 1
00:06:31.682 : en:Chapter 2
00:16:57.933 : en:Chapter 3
00:26:35.594 : en:Chapter 4
00:34:38.034 : en:Chapter 5
00:42:07.816 : en:Chapter 6
00:48:07.050 : en:Chapter 7
00:56:41.648 : en:Chapter 8
01:01:42.782 : en:Chapter 9
01:10:27.681 : en:Chapter 10
01:17:15.922 : en:Chapter 11
01:24:22.640 : en:Chapter 12
01:32:11.234 : en:Chapter 13
01:40:01.328 : en:Chapter 14
01:46:34.763 : en:Chapter 15
01:54:01.042 : en:Chapter 16



Скачать Джон Уик через торрент https://b.radikal.ru/b24/1805/7a/48371093da56.png Скачать, смотреть онлайн Джон Уик бесплантно в хорошем качестве Описание: Джон Уик, на первый взгляд, - самый обычный среднестатистический американец, который ведет спокойную мирную жизнь. Однако мало ... 10 10 4
Info! Золотая раздача, скачанное не засчитывается.
Торрент: Зарегистрирован [2018-05-27 03:06] · скачан: 54 раз
Статус: √ проверено
Размер: 148.7 GB
Как cкачать? Как скачать Джон Уик через торрент | UTorrent

28-11-2019 20:33  


Отключить вcю реклaмy на сайте, в т.ч. и в плеере онлайн просмотра!

    Дорогой пользователь! Огромная просьба, поблагодарите релизера, оцените раздачу и оставьте свои комментарий, если Вы скачали Джон Уик через торрент бесплатно!!
    Комментировать посты могут только пользователи прошедшие не сложную регистрацию
    Показать сообщения:    


    Джон Уик через торрент
    Скачать бесплатно Джон Уик
    Джон Уик скачать торрент
    Джон Уик смотреть онлайн
    Cкачать фильм Джон Уик бесплатно
    Джон Уик скачать торрент в хорошем качестве
    Джон Уик смотреть онлайн бесплатно в хорошем качестве
    Вы не можете начинать темы
    Вы не можете отвечать на сообщения
    Вы не можете редактировать свои сообщения
    Вы не можете удалять свои сообщения
    Вы не можете голосовать в опросах
    Вы не можете прикреплять файлы к сообщениям
    Вы можете скачивать файлы
    Джон Уик / John Wick [2014-2017, боевик, триллер, криминал, UHD BDRemux 2160p] Дубляж + 7xAVO смотреть онлайн, скачать торрент picoco.icu