1 сезон

3 сезон

iTunes

1

iTunes

DUB Netflix

iTunes

13

1 сезон

RePack

30

Deluxe

pack

Легкие деньги

ВАЖНО

ИГРА 18+

pack

RePack

MK11

RePack

jed

RePack

fifa19

RePack

RDR2

RePack

NEED FOR SPEED™ PAYBACK

4 сезон

9 сезон

Бесстыжие 9 сезон

Все сериалы

все сериалы на PB.wtf

RePack

FAR CRY 5

Anonymous, добрый день, мы не успеваем до 1 числа собрать деньги на оплату серверов, помогите нам пожалуйста в это трудное время. В качестве благодарности мы отключим Вам всю рекламу на сайте (укажите свой ник в строку Ваше имя)!

×
  
Magnet ссылка

СашаТаня / Сезон: 6 / Серии: 1-11 из 11 + Фильм о фильме (Михаил Старчак) [2018, Ситком, комедия, HDTVRip-AVC] piratbit.org

СашаТаня через торрент piratbit.org

Размер: 4.14 GB | Добавлен: 3 года назад | Торрент скачан:142 раза
Скачать  

30-05-2018 01:56 СашаТаня Скачать торрент  

СашаТаняГод выпуска: 2018
Страна: Россия
Жанр: Ситком, комедия
Продолжительность: ~ 00:21:03
Перевод: Не требуется
Субтитры: отсутствуют

Режиссер: Михаил Старчак



В ролях:

Андрей Гайдулян, Валентина Рубцова, Алексей Климушкин, Елена Бирюкова, Татьяна Орлова, Андрей Лебедев, Ксения Хаирова, Олег Новиков, Сергей Рудзевич, Сергей Мурзин, Андрей Свиридов, Павел Кассинский, Виталий Гогунский, Арарат Кещян, Ёлка, Алексей Гаврилов, Лариса Баранова, Алина Кизиярова-Ланина, Екатерина Шукшина, Владимир Епифанцев

Описание:

Смерившись с ипотекой, детским садиком и надоевшим папашей-олигархом, чете Сергеевых станет невыносимо скучно. Настолько, что они обзаведутся новым «ребенком». Кавычки здесь потому, что ребенок этот будет не родной, и даже не приемный. Из некоего города Озерки в Москву нагрянет двоюродная сестра Тани 18-летняя Катя, которая станет для Сергеевых большой и очень симпатичной обузой. Сестренка оказалась девушкой видной, поэтому Саша, положив на нее свой отеческий «надзор», моментально поведет знакомить провинциалку с московскими прелестями: Красной Площадью, Кремлем, ГУМом и другими столичными соблазнами. В общем, не было у Сергеевых забот. Но одной Катеньки для полного «счастья» Саше и Тане будет маловато, поэтому в новых сериях Саша пройдет тест на сексуальную раскрепощенность, найдет странную подработку, вдрызг поссорится с коллегами, а еще будет обстирывать всю свою семью. Татьяна уйдет с головой в работу, что, впрочем, не помешает ей ревновать мужа к новой секретарше, а еще попеременно воспитывать сестру Катеньку и сына Алешку.

Качество: HDTVRip-AVC
Формат: MKV

Видео: MPEG-4 AVC, ~ 2000 Кбит/с, 1024x576, 25 кадр/с
Аудио: Русский (AC3, 2 ch, 384 Кбит/с)
скриншот   скриншот   скриншот   скриншот  

Общее
Уникальный идентификатор : 249119112491316249662820539409886836925 (0xBB6A988967719568B167A71D0CBB78BD)
Полное имя : F:\SashaTanja.s06.(2018).HDTVRip.(AVC).Files-x\01.SashaTanya.06.(2018).HDTVRip.AVC.by.Серый1779.Files-x.mkv
Формат : Matroska
Версия формата : Version 2
Размер файла : 359 Мбайт
Продолжительность : 22 м. 54 с.
Общий поток : 2194 Кбит/сек
Дата кодирования : UTC 2018-05-14 19:24:23
Программа кодирования : mkvmerge v7.8.0 ('River Man') 32bit built on Apr 3 2015 12:11:22
Библиотека кодирования : libebml v1.3.1 + libmatroska v1.4.2

Видео
Идентификатор : 1
Формат : AVC
Формат/Информация : Advanced Video Codec
Профиль формата : High@L4.1
Параметр CABAC формата : Да
Параметр RefFrames формата : 9 кадров
Идентификатор кодека : V_MPEG4/ISO/AVC
Продолжительность : 22 м. 54 с.
Битрейт : 2000 Кбит/сек
Ширина : 1024 пикселя
Высота : 576 пикселей
Соотношение сторон : 16:9
Режим частоты кадров : Постоянный
Частота кадров : 25,000 кадров/сек
Цветовое пространство : YUV
Субдискретизация насыщенности : 4:2:0
Битовая глубина : 8 бит
Тип развёртки : Прогрессивная
Бит/(Пиксели*Кадры) : 0.136
Размер потока : 321 Мбайт (89%)
Библиотека кодирования : x264 core 146 r2538 121396c
Настройки программы : cabac=1 / ref=9 / deblock=1:-2:-1 / analyse=0x3:0x133 / me=umh / subme=9 / psy=1 / psy_rd=1.00:0.15 / mixed_ref=1 / me_range=32 / chroma_me=1 / trellis=2 / 8x8dct=1 / cqm=0 / deadzone=21,11 / fast_pskip=0 / chroma_qp_offset=-3 / threads=18 / lookahead_threads=3 / sliced_threads=0 / nr=0 / decimate=1 / interlaced=0 / bluray_compat=0 / constrained_intra=0 / bframes=9 / b_pyramid=2 / b_adapt=2 / b_bias=0 / direct=1 / weightb=1 / open_gop=0 / weightp=2 / keyint=250 / keyint_min=25 / scenecut=40 / intra_refresh=0 / rc=2pass / mbtree=0 / bitrate=2000 / ratetol=1.0 / qcomp=0.60 / qpmin=0 / qpmax=69 / qpstep=4 / cplxblur=20.0 / qblur=0.5 / ip_ratio=1.40 / pb_ratio=1.30 / aq=2:1.00
Default : Да
Forced : Нет
Цветовой диапазон : Limited
Основные цвета : BT.709
Характеристики трансфера : BT.709
Коэффициенты матрицы : BT.709

Аудио
Идентификатор : 2
Формат : AC-3
Формат/Информация : Audio Coding 3
Расширение режима : CM (complete main)
Параметр Endianness формата : Big
Идентификатор кодека : A_AC3
Продолжительность : 22 м. 54 с.
Вид битрейта : Постоянный
Битрейт : 192 Кбит/сек
Каналы : 2 канала
Расположение каналов : Front: L R
Частота : 48,0 КГц
Частота кадров : 31,250 кадров/сек (1536 spf)
Метод сжатия : С потерями
Размер потока : 31,5 Мбайт (9%)
Default : Да
Forced : Нет

piratbit.org



Скачать СашаТаня через торрент http://i105.fastpic.ru/big/2018/0514/f0/5a142537e4e19cfd63a41e20f3c00ff0.jpg Скачать фильм СашаТаня через торрент бесплантно в хорошем качестве Описание: Смерившись с ипотекой, детским садиком и надоевшим папашей-олигархом, чете Сергеевых станет невыносимо скучно. Настолько, что они ... 9 10 9
Торрент: Зарегистрирован [2018-05-30 20:44] · скачан: 142 раз
Статус: √ проверено
Размер: 4.14 GB
Как cкачать? Как скачать СашаТаня через торрент | UTorrent

% Раздел Тема Автор DL S | L
TNT serials [ 3.26 GB ] СашаТаня / Сезон: 6 / Серии: 1-11 из 11 + Фильм о фильме [2018 Ситком HDTVRip] bober100 Скачать
1 | 0
TNT serials [ 14.82 GB ] СашаТаня / Сезон: 6 / Серии: 1-11 из 11 + Фильм о фильме [2018 Ситком HDTV 1080i] bober100 Скачать
1 | 0

28-11-2019 20:33  

Отключить всю рекламу на сайте

    Дорогой пользователь! Огромная просьба, поблагодарите релизера, оцените раздачу и оставьте свои комментарий, если Вы скачали СашаТаня через торрент бесплатно! Внесите свою лепту в развитие PiratBit!
    Комментировать посты могут только пользователи прошедшие не сложную регистрацию
    Показать сообщения:    

    СашаТаня через торрент
    Скачать бесплатно СашаТаня
    СашаТаня скачать торрент
    СашаТаня смотреть онлайн
    Cкачать фильм СашаТаня бесплатно
    СашаТаня скачать торрент в хорошем качестве
    СашаТаня смотреть онлайн бесплатно в хорошем качестве


    Вы не можете начинать темы
    Вы не можете отвечать на сообщения
    Вы не можете редактировать свои сообщения
    Вы не можете удалять свои сообщения
    Вы не можете голосовать в опросах
    Вы не можете прикреплять файлы к сообщениям
    Вы можете скачивать файлы