Достать ножи: Стеклянная луковица

MVO

Добыча

Дубляж

Уэнсдэй

1 сезон

Тор

Дубляж

13 клиническая

1 сезон

Жестокая ночь

MVO

Одни из нас

1 сезон

Deluxe

pack

Рекомендуем

30

Пиратка

ВАЖНО

ВАЖНО

Ghostwire

Пиратка

jed

RePack

nioh2

RePack

RDR2

RePack

NEED FOR SPEED™ PAYBACK

RePack

скачать торрент

Кинопоиск HD

Острые козырьки 6 сезон

6 сезон

FAR CRY 6

RePack

скачать торрент

Лицензия

скачать торрент

MVO

1

1 сезон

скачать торрент

1 сезон

скачать торрент

Лицензия

  

Воин / Warrior (Гэвин О’Коннор / Gavin O'Connor) [2011, Боевик, драма, спорт, UHD BDRemux 2160p] MVO (rus, ukr) + AVO [Ю. Сербин]

Воин через торрент piratbit.org

Размер: 82.7 GB | Добавлен: 4 года 8 мес. назад | Торрент скачан:18 раз
Смотреть онлайн | Скачать | Поддержите нас   

31-05-2018 06:54 Воин Скачать торрент  

Воин / Warrior«Дерись за семью. Борись за страну»
Год выпуска: 2011
Страна: США, Mimran Schur Pictures, Lionsgate, Solaris
Жанр: Боевик, драма, спорт
Продолжительность: 02:19:54
Перевод: Профессиональный многоголосый, авторский
Субтитры: Русские, английские
Режиссер: Гэвин О’Коннор
В ролях:
Джоэл Эдгертон, Том Харди, Ник Нолти, Дженнифер Моррисон, Фрэнк Грилло, Кевин Данн, Максимилиано Эрнандес, Брайан Коллен, Гэвин О’Коннор, Сэм Шеридан, Фернандо Чиен, Джейк МакЛафлин, Ванесса Мартинес, Дензел Уитакер, Карлос Миранда, Мануэль Эспиноса, Ник Лиэйн, Лаура Кинли, Капри Томас, Лекси Коуэн, Ноа Эммерик, Дэн Колдуэлл, Тим Кац, Джулия Стоукстэд, Джош Розенталь, Курт Энгл, Эрик Эппл, Энтони Джонсон, Дэниэл Стивенс
Описание:
Младший сын спившегося боксера возвращается домой, чтобы отец тренировал его для предстоящего турнира по боевым искусствам. Однако, на этом пути бойцу придется столкнуться со своим старшим братом.
Рейтинг:

Качество: UHD BDRemux 2160p
Формат: MKV
Видео: HEVC, HDR, 65,6 Mбит/с, 3840x2160, 23.976 кадр/с
Аудио №1: Русский (DTS-HD MA, 8 ch, 4815 Кбит/с) - профессиональный многоголосый (R5)
Аудио №2: Украинский (DTS-HD MA, 8 ch, 4864 Кбит/с) - профессиональный многоголосый (Омикрон)
Аудио №3: Русский (DTS-HD MA, 8 ch, 4853 Кбит/с) - авторский (Ю. Сербин)
Аудио №4: Английский (TrueHD+Atmos, 8 ch, 8205 Кбит/с) - оригинальная звуковая дорожка
Навигация по главам: есть
Съемки фильма проходили в Питтсбурге и Атлантик-сити.
Прототипом бойца по имени Коба, сыграного Куртом Энглом, является многократный чемпион мира по боям без правил Федор Емельяненко. Для этой роли Курт Энгл изучил все записи боев Федора Емельяненко, сбросил 14 килограммов веса и три месяца учил русский язык.
Для роли Том Харди набрал 12 килограммов мышечной массы.
Техническим консультантом фильма был Грег Джексон, неоднократный победитель в категории «ММА тренер года».
Режиссёр фильма Гэвин О`Коннор снялся в роли организатора турнира Джей Джей Райли.
Коба выходит на ринг в полуфинале под песню Владимира Семёновича Высоцкого «Кони привередливые».
Оскар, 2012 год
Номинации (1):
Лучшая мужская роль второго плана (Ник Нолти)

Премия канала «MTV», 2012 год
Номинации (1):
Лучшая драка

Премия Гильдии актеров, 2012 год
Номинации (1):
Лучшая мужская роль второго плана (Ник Нолти)
Общее
Уникальный идентификатор : 174934380767768255614347748939570211084 (0x839B22DF77C32120A42E293EC151E90C)
Полное имя : WARRIOR_BD_UHD_HDR_REMUX.mkv
Формат : Matroska
Версия формата : Version 4 / Version 2
Размер файла : 82,7 Гбайт
Продолжительность : 2 ч. 19 м.
Режим общего битрейта : Переменный
Общий поток : 84,6 Мбит/сек
Название фильма : WARRIOR_BD_UHD_HDR_REMUX
Дата кодирования : UTC 2017-12-03 08:18:47
Программа кодирования : mkvmerge v18.0.0 ('Apricity') 64-bit
Библиотека кодирования : libebml v1.3.5 + libmatroska v1.4.8

Видео
Идентификатор : 1
Формат : HEVC
Формат/Информация : High Efficiency Video Coding
Профиль формата : Main 10@L5.1@High
Идентификатор кодека : V_MPEGH/ISO/HEVC
Продолжительность : 2 ч. 19 м.
Битрейт : 65,6 Мбит/сек
Ширина : 3840 пикселей
Высота : 2160 пикселей
Соотношение сторон : 16:9
Режим частоты кадров : Постоянный
Частота кадров : 23,976 (24000/1001) кадра/сек
Цветовое пространство : YUV
Субдискретизация насыщенности : 4:2:0 (Type 2)
Битовая глубина : 10 бит
Бит/(Пиксели*Кадры) : 0.330
Размер потока : 64,1 Гбайт (78%)
Заголовок : WARRIOR_BD_UHD_HDR_REMUX
Библиотека кодирования : ATEME Titan File 3.7.9 (4.7.9.0)
Default : Да
Forced : Нет
Цветовой диапазон : Limited
Основные цвета : BT.2020
Характеристики трансфера : SMPTE ST 2084
Коэффициенты матрицы : BT.2020 non-constant
MasteringDisplay_ColorPrimaries : R: x=0.680000 y=0.320000, G: x=0.265000 y=0.690000, B: x=0.150000 y=0.060000, White point: x=0.312700 y=0.329000
MasteringDisplay_Luminance : min: 0.0000 cd/m2, max: 1000.0000 cd/m2
MaxCLL : 1000 cd/m2
MaxFALL : 429 cd/m2

Аудио #1
Идентификатор : 2
Формат : DTS
Формат/Информация : Digital Theater Systems
Профиль формата : MA / Core
Режим : 16
Параметр Endianness формата : Big
Идентификатор кодека : A_DTS
Продолжительность : 2 ч. 19 м.
Вид битрейта : Переменный / Постоянный
Битрейт : 4815 Кбит/сек / 1509 Кбит/сек
Каналы : 8 каналов / 6 каналов
Расположение каналов : Front: L C R, Side: L R, Back: L R, LFE / Front: L C R, Side: L R, LFE
Частота : 48,0 КГц
Частота кадров : 93,750 кадра/сек (512 SPF)
Битовая глубина : 24 бит
Метод сжатия : Без потерь / Lossy
Размер потока : 4,70 Гбайт (6%)
Заголовок : [MVO] DTS-HD MA 7.1 @ 4814 kbps (R5)
Язык : Russian
Default : Да
Forced : Нет

Аудио #2
Идентификатор : 3
Формат : DTS
Формат/Информация : Digital Theater Systems
Профиль формата : MA / Core
Режим : 16
Параметр Endianness формата : Big
Идентификатор кодека : A_DTS
Продолжительность : 2 ч. 19 м.
Вид битрейта : Переменный / Постоянный
Битрейт : 4864 Кбит/сек / 1509 Кбит/сек
Каналы : 8 каналов / 6 каналов
Расположение каналов : Front: L C R, Side: L R, Back: L R, LFE / Front: L C R, Side: L R, LFE
Частота : 48,0 КГц
Частота кадров : 93,750 кадра/сек (512 SPF)
Битовая глубина : 24 бит
Метод сжатия : Без потерь / Lossy
Размер потока : 4,75 Гбайт (6%)
Заголовок : [MVO] DTS-HD MA 7.1 @ 4864 kbps (Omikron)
Язык : Ukrainian
Default : Нет
Forced : Нет

Аудио #3
Идентификатор : 4
Формат : DTS
Формат/Информация : Digital Theater Systems
Профиль формата : MA / ES Matrix / Core
Режим : 16
Параметр Endianness формата : Big
Идентификатор кодека : A_DTS
Продолжительность : 2 ч. 19 м.
Вид битрейта : Переменный / Постоянный / Постоянный
Битрейт : 4853 Кбит/сек / 1509 Кбит/сек / 1509 Кбит/сек
Каналы : 8 каналов / 7 каналов / 6 каналов
Расположение каналов : Front: L C R, Side: L R, Back: L R, LFE / Front: L C R, Side: L R, Back: C, LFE / Front: L C R, Side: L R, LFE
Частота : 48,0 КГц
Частота кадров : 93,750 кадра/сек (512 SPF)
Битовая глубина : 24 бит
Метод сжатия : Без потерь / Lossy / Lossy
Размер потока : 4,74 Гбайт (6%)
Заголовок : [VO] DTS-HD MA 7.1 @ 4852 kbps (VO Y. Serbin)
Язык : Russian
Default : Нет
Forced : Нет

Аудио #4
Идентификатор : 5
Формат : TrueHD
Профиль формата : TrueHD+Atmos / TrueHD
Идентификатор кодека : A_TRUEHD
Продолжительность : 2 ч. 19 м.
Вид битрейта : Переменный
Битрейт : 4335 Кбит/сек
Максимальный битрейт : 8205 Кбит/сек
Каналы : Object Based / 8 каналов
Расположение каналов : Object Based / Front: L C R, Side: L R, Back: L R, LFE
Частота : / 48,0 КГц
Частота кадров : 1200,000 кадров/сек (40 SPF)
Метод сжатия : Без потерь
Размер потока : 4,24 Гбайт (5%)
Заголовок : [ORIGINAL] ATMOS 7.1 @ 4335 kbps
Язык : English
Default : Нет
Forced : Нет

Текст #1
Идентификатор : 6
Формат : PGS
Режим смешивания : zlib
Идентификатор кодека : S_HDMV/PGS
Идентификатор кодека/Информация : Picture based subtitle format used on BDs/HD-DVDs
Продолжительность : 2 ч. 12 м.
Битрейт : 43,1 Кбит/сек
ElementCount : 2833
Размер потока : 41,0 Мбайт (0%)
Заголовок : [SUP] Full-length (R5)
Язык : Russian
Default : Нет
Forced : Нет

Текст #2
Идентификатор : 7
Формат : UTF-8
Идентификатор кодека : S_TEXT/UTF8
Идентификатор кодека/Информация : UTF-8 Plain Text
Продолжительность : 2 ч. 12 м.
Битрейт : 86 бит/сек
ElementCount : 1513
Размер потока : 84,1 Кбайт (0%)
Заголовок : [SRT] Full-length (R5)
Язык : Russian
Default : Нет
Forced : Нет

Текст #3
Идентификатор : 8
Формат : PGS
Режим смешивания : zlib
Идентификатор кодека : S_HDMV/PGS
Идентификатор кодека/Информация : Picture based subtitle format used on BDs/HD-DVDs
Продолжительность : 2 ч. 10 м.
Битрейт : 56,3 Кбит/сек
ElementCount : 3772
Размер потока : 52,6 Мбайт (0%)
Заголовок : [SUP] Full-length (E. Voronine)
Язык : Russian
Default : Нет
Forced : Нет

Текст #4
Идентификатор : 9
Формат : UTF-8
Идентификатор кодека : S_TEXT/UTF8
Идентификатор кодека/Информация : UTF-8 Plain Text
Продолжительность : 2 ч. 10 м.
Битрейт : 115 бит/сек
ElementCount : 1889
Размер потока : 110 Кбайт (0%)
Заголовок : [SRT] Full-length (E. Voronine)
Язык : Russian
Default : Нет
Forced : Нет

Текст #5
Идентификатор : 10
Формат : PGS
Режим смешивания : zlib
Идентификатор кодека : S_HDMV/PGS
Идентификатор кодека/Информация : Picture based subtitle format used on BDs/HD-DVDs
Продолжительность : 2 ч. 8 м.
Битрейт : 46,9 Кбит/сек
ElementCount : 3724
Размер потока : 42,9 Мбайт (0%)
Заголовок : [SUP] Full-length
Язык : English
Default : Нет
Forced : Нет

Текст #6
Идентификатор : 11
Формат : PGS
Режим смешивания : zlib
Идентификатор кодека : S_HDMV/PGS
Идентификатор кодека/Информация : Picture based subtitle format used on BDs/HD-DVDs
Продолжительность : 2 ч. 12 м.
Битрейт : 48,6 Кбит/сек
ElementCount : 3998
Размер потока : 46,1 Мбайт (0%)
Заголовок : [SUP] SDH
Язык : English
Default : Нет
Forced : Нет

Меню
00:00:00.000 : en:Just Passing Through
00:10:32.048 : en:I'll Fight Him
00:16:45.922 : en:Quiet Night
00:26:33.759 : en:A Tournament
00:39:08.179 : en:Back In The Cage
00:45:48.829 : en:Paddy's Plea
00:51:28.127 : en:Keep Moving
00:58:27.003 : en:I'm IN
01:06:01.666 : en:Dark Horse
01:14:26.462 : en:Real Deal
01:22:32.114 : en:Teaching A Lesson
01:30:34.846 : en:Here To Fight
01:40:45.248 : en:Trouble
01:52:55.185 : en:Brothers
02:00:20.296 : en:It's Over
02:06:49.602 : en:New Beginnings



Скачать Воин через торрент https://a.radikal.ru/a05/1805/b7/a5288627021b.jpg Скачать, смотреть онлайн Воин бесплантно в хорошем качестве Описание: Младший сын спившегося боксера возвращается домой, чтобы отец тренировал его для предстоящего турнира по боевым искусствам. ... 10 10 3
Info! Золотая раздача, скачанное не засчитывается.
Торрент: Зарегистрирован [2018-05-31 06:54] · скачан: 18 раз
Статус: √ проверено
Размер: 82.7 GB
Как cкачать? Как скачать Воин через торрент | UTorrent

28-11-2019 20:33  


Отключить вcю реклaмy на сайте, в т.ч. и в плеере онлайн просмотра!

02-06-2018 20:01 Воин Скачать торрент  

И где раздача? сида нет.Зачем выкладывать тогда.



03-06-2018 02:39 Воин Скачать торрент  

Раздача мультитрекерная!!!
Судя по статистике, всё отлично качается (если не хватает терпения, проходите мимо)



    Дорогой пользователь! Огромная просьба, поблагодарите релизера, оцените раздачу и оставьте свои комментарий, если Вы скачали Воин через торрент бесплатно!!
    Комментировать посты могут только пользователи прошедшие не сложную регистрацию
    Показать сообщения:    


    Воин через торрент
    Скачать бесплатно Воин
    Воин скачать торрент
    Воин смотреть онлайн
    Cкачать фильм Воин бесплатно
    Воин скачать торрент в хорошем качестве
    Воин смотреть онлайн бесплатно в хорошем качестве
    Вы не можете начинать темы
    Вы не можете отвечать на сообщения
    Вы не можете редактировать свои сообщения
    Вы не можете удалять свои сообщения
    Вы не можете голосовать в опросах
    Вы не можете прикреплять файлы к сообщениям
    Вы можете скачивать файлы
    Воин / Warrior [2011, Боевик, драма, спорт, UHD BDRemux 2160p] MVO + AVO [Ю. Сербин] смотреть онлайн, скачать торрент picoco.icu