Лицензия

MVO

1

1 сезон

Лицензия

Лицензия

13

MVO

1 сезон

Deluxe Edition

pack

Рекомендуем

30

Repack

ВАЖНО

ВАЖНО

Ghostwire

RePack

jed

RePack

fifa19

RePack

RDR2

RePack

NEED FOR SPEED™ PAYBACK

RePack

Кинопоиск HD

 Острые козырьки 6 сезон

6 сезон

FAR CRY 6

RePack

Лицензия

MVO

1

1 сезон

1 сезон

Лицензия

  

Девчата (Юрий Чулюкин) [Реставрация] [1961 г., мелодрама, комедия, BDRip 1080p, HEVC (10bit) ]

Девчата через торрент piratbit.org

Размер: 3.84 GB | Добавлен: 4 года 3 мес. назад | Торрент скачан:153 раза
Смотреть онлайн Девчата | Скачать   

02-06-2018 19:22 Девчата Скачать торрент  

Девчата
Год выпуска: 1961
Страна: СССР
Жанр: мелодрама, комедия
Продолжительность: 01:36:03
Субтитры: Русские, английские

Режиссер: Юрий Чулюкин



В ролях: Надежда Румянцева, Николай Рыбников, Люсьена Овчинникова, Станислав Хитров, Инна Макарова, Светлана Дружинина, Нина Меньшикова, Николай Погодин, Михаил Пуговкин, Анатолий Адоскин, Виктор Байков, Роман Филиппов, Алексей Крыченков, Петр Кирюткин, Михаил Кокшенов

Описание: В отдаленный северный городок приехала Тося Кислицына, которую в тот же день приняли на работу в качестве поварихи. И в этот же день она повстречала красавца Илью, который нравился почти всем женщинам. Знакомство начинается с ссоры, но позже перерастает в любовную историю.
Доп. информация: -
H.265/HEVC (High Efficiency Video Coding) - это новый стандарт кодирования видео.
- Стандарт H.265/HEVC является логическим продолжением стандарта
H.264/AVC (Advanced Video Coding), и характеризуется более эффективными
алгоритмами сжатия, а также поддержкой высокого разрешения вплоть до 8K UHD
(8192x4320). Первая версия стандарта H.265 была опубликована в начале 2013 года.
- Рипы в фомате HEVC поддерживается не всеми аппаратными проигрывателями.
- Для корректного воспроизведения может потребоваться обновление ПО.
- Владельцам несовместимого железа просьба не беспокоить,
есть альтернативные релизы.
Качество: BDRip 1080p
Формат: MKV
Видео кодек: H.265
Аудио кодек: AC3
Видео: 1920x816, ~5081 Kbps
Аудио: AC3, 6 ch, 640 Kbps
Релиз от: NEGAN
Общее
Уникальный идентификатор : 254510669145517904974430302804553265637 (0xBF78F8CD9BCE761686A6EBBAC3B871E5)
Полное имя : J:\ФИЛЬМЫ\Девчата. [Реставрация] (1961) BDRip 1080p [HEVC] 10bit (1).mkv
Формат : Matroska
Версия формата : Version 4 / Version 2
Размер файла : 3,84 Гбайт
Продолжительность : 1 ч. 36 м.
Общий поток : 5723 Кбит/сек
Название фильма : Девчата (1961) / Lelya_K for NNM-Club
Дата кодирования : UTC 2018-06-02 14:53:25
Программа кодирования : mkvmerge v8.9.0 ('Father Daughter') 64bit
Библиотека кодирования : libebml v1.3.3 + libmatroska v1.4.4 / Lavf57.71.100
Обложка : Yes
Attachments : cover.jpg
ENCODING_INFO : MATROSKA,WEBM > MKV Пользовательский / H264 > X265 CBR 5100kbps Medium / DTS-HD MA > AC3 CBR 640kbps

Видео
Идентификатор : 1
Формат : HEVC
Формат/Информация : High Efficiency Video Coding
Профиль формата : Main 10@L5.1@Main
Идентификатор кодека : V_MPEGH/ISO/HEVC
Продолжительность : 1 ч. 36 м.
Битрейт : 5081 Кбит/сек
Ширина : 1920 пикселей
Высота : 816 пикселей
Соотношение сторон : 2,35:1
Режим частоты кадров : Постоянный
Частота кадров : 23,976 (24000/1001) кадра/сек
Цветовое пространство : YUV
Субдискретизация насыщенности : 4:2:0
Битовая глубина : 10 бит
Бит/(Пиксели*Кадры) : 0.135
Размер потока : 3,41 Гбайт (89%)
Заголовок : Девчата.(1961).BRemux.[1080p]
Библиотека кодирования : x265 2.7+336-07defe235cde:[Windows][clang 7.0.0][64 bit] 10bit
Настройки программы : cpuid=1049583 / frame-threads=5 / numa-pools=4 / wpp / no-pmode / no-pme / no-psnr / no-ssim / log-level=3 / input-csp=1 / input-res=1920x816 / interlace=0 / total-frames=0 / level-idc=51 / high-tier=1 / uhd-bd=0 / ref=3 / allow-non-conformance / no-repeat-headers / annexb / no-aud / no-hrd / info / hash=0 / no-temporal-layers / open-gop / min-keyint=24 / keyint=240 / gop-lookahead=0 / bframes=4 / b-adapt=2 / b-pyramid / bframe-bias=0 / rc-lookahead=20 / lookahead-slices=5 / scenecut=40 / radl=0 / no-intra-refresh / ctu=64 / min-cu-size=8 / no-rect / no-amp / max-tu-size=32 / tu-inter-depth=1 / tu-intra-depth=1 / limit-tu=0 / rdoq-level=0 / dynamic-rd=0.00 / no-ssim-rd / signhide / no-tskip / nr-intra=0 / nr-inter=0 / no-constrained-intra / strong-intra-smoothing / max-merge=2 / limit-refs=3 / no-limit-modes / me=1 / subme=2 / merange=57 / temporal-mvp / weightp / no-weightb / no-analyze-src-pics / deblock=-2:-2 / sao / no-sao-non-deblock / rd=3 / no-early-skip / rskip / no-fast-intra / no-tskip-fast / no-cu-lossless / no-b-intra / no-splitrd-skip / rdpenalty=0 / psy-rd=2.00 / psy-rdoq=0.00 / no-rd-refine / no-lossless / cbqpoffs=0 / crqpoffs=0 / rc=cbr / bitrate=5100 / qcomp=0.60 / qpstep=4 / stats-write=0 / stats-read=0 / vbv-maxrate=5100 / vbv-bufsize=3642 / vbv-init=0.9 / ipratio=1.40 / pbratio=1.30 / aq-mode=1 / aq-strength=1.00 / cutree / zone-count=0 / no-strict-cbr / qg-size=32 / no-rc-grain / qpmax=69 / qpmin=0 / no-const-vbv / sar=1 / overscan=0 / videoformat=5 / range=0 / colorprim=1 / transfer=14 / colormatrix=1 / chromaloc=0 / display-window=0 / max-cll=0,0 / min-luma=0 / max-luma=1023 / log2-max-poc-lsb=8 / vui-timing-info / vui-hrd-info / slices=1 / no-opt-qp-pps / no-opt-ref-list-length-pps / no-multi-pass-opt-rps / scenecut-bias=0.05 / no-opt-cu-delta-qp / no-aq-motion / no-hdr / no-hdr-opt / no-dhdr10-opt / no-idr-recovery-sei / analysis-reuse-level=5 / scale-factor=0 / refine-intra=0 / refine-inter=0 / refine-mv=0 / no-limit-sao / ctu-info=0 / no-lowpass-dct / refine-mv-type=0 / copy-pic=1 / max-ausize-factor=1.0 / no-dynamic-refine / no-single-sei
Язык : Russian
Default : Да
Forced : Нет
Цветовой диапазон : Limited
Основные цвета : BT.709
Характеристики трансфера : BT.2020 (10-bit)
Коэффициенты матрицы : BT.709

Аудио
Идентификатор : 2
Формат : AC-3
Формат/Информация : Audio Coding 3
Идентификатор кодека : A_AC3
Продолжительность : 1 ч. 36 м.
Вид битрейта : Постоянный
Битрейт : 640 Кбит/сек
Каналы : 6 каналов
Расположение каналов : Front: L C R, Side: L R, LFE
Частота : 48,0 КГц
Частота кадров : 31,250 кадров/сек (1536 SPF)
Битовая глубина : 16 бит
Метод сжатия : С потерями
Размер потока : 440 Мбайт (11%)
Заголовок : DTS-HD MA 5.1 / 3620 kbps
Язык : Russian
ServiceKind/String : Complete Main
Default : Да
Forced : Нет

Текст #1
Идентификатор : 3
Формат : UTF-8
Идентификатор кодека : S_TEXT/UTF8
Идентификатор кодека/Информация : UTF-8 Plain Text
Продолжительность : 1 ч. 33 м.
Битрейт : 83 бит/сек
ElementCount : 856
Размер потока : 57,1 Кбайт (0%)
Заголовок : Full
Язык : Russian
Default : Да
Forced : Нет

Текст #2
Идентификатор : 4
Формат : UTF-8
Идентификатор кодека : S_TEXT/UTF8
Идентификатор кодека/Информация : UTF-8 Plain Text
Продолжительность : 1 ч. 33 м.
Битрейт : 43 бит/сек
ElementCount : 931
Размер потока : 30,0 Кбайт (0%)
Заголовок : Full
Язык : English
Default : Нет
Forced : Нет

Меню
00:00:00.000 : :Chapter 1
00:12:34.754 : :Chapter 2
00:20:29.561 : :Chapter 3
00:26:55.822 : :Chapter 4
00:34:21.851 : :Chapter 5
00:39:25.905 : :Chapter 6
00:44:19.198 : :Chapter 7
00:50:27.858 : :Chapter 8
00:55:28.366 : :Chapter 9
01:07:08.649 : :Chapter 10
01:11:37.418 : :Chapter 11
01:17:02.868 : :Chapter 12
01:20:46.925 : :Chapter 13
01:24:41.117 : :Chapter 14
01:27:56.145 : :Chapter 15
01:33:03.286 : :Chapter 16




Скачать Девчата через торрент https://d.radikal.ru/d35/1806/5e/09d2b809fccf.jpg Скачать, смотреть онлайн Девчата бесплантно в хорошем качестве Описание: В отдаленный северный городок приехала Тося Кислицына, которую в тот же день приняли на работу в качестве поварихи. И в этот же ... 10 10 7
Info! Золотая раздача, скачанное не засчитывается.
Торрент: Зарегистрирован [2018-06-02 19:22] · скачан: 153 раз
Статус: √ проверено
Размер: 3.84 GB
Как cкачать? Как скачать Девчата через торрент | UTorrent

% Раздел Тема Автор DL S | L
Фильмы (HD 720p, 1080p) (48-60 fps) [ 4.1 GB ] Девчата | | 720p / 60 FPS, slaventi-69 Скачать
1 | 0
Кино СССР [ 2.18 GB ] Девчата | | BDRip jb_alex Скачать
1 | 0

28-11-2019 20:33  

Отключить вcю реклaмy на сайте

27-04-2022 04:23 Девчата Скачать торрент  

Мичман37, добрый день, не могли бы Вы поставить в раздачу Девчата (Юрий Чулюкин) [Реставрация] [1961 г., мелодрама, комедия, BDRip 1080p, HEVC (10bit) ]



    Дорогой пользователь! Огромная просьба, поблагодарите релизера, оцените раздачу и оставьте свои комментарий, если Вы скачали Девчата через торрент бесплатно!!
    Комментировать посты могут только пользователи прошедшие не сложную регистрацию
    Показать сообщения:    


    Девчата через торрент
    Скачать бесплатно Девчата
    Девчата скачать торрент
    Девчата смотреть онлайн
    Cкачать фильм Девчата бесплатно
    Девчата скачать торрент в хорошем качестве
    Девчата смотреть онлайн бесплатно в хорошем качестве
    Вы не можете начинать темы
    Вы не можете отвечать на сообщения
    Вы не можете редактировать свои сообщения
    Вы не можете удалять свои сообщения
    Вы не можете голосовать в опросах
    Вы не можете прикреплять файлы к сообщениям
    Вы можете скачивать файлы