Лицензия

MVO

1

1 сезон

Лицензия

Лицензия

13

MVO

1 сезон

Deluxe Edition

pack

Рекомендуем

30

Repack

ВАЖНО

ВАЖНО

Ghostwire

RePack

jed

RePack

fifa19

RePack

RDR2

RePack

NEED FOR SPEED™ PAYBACK

RePack

Кинопоиск HD

 Острые козырьки 6 сезон

6 сезон

FAR CRY 6

RePack

Лицензия

MVO

1

1 сезон

1 сезон

Лицензия

  

Игра престолов / Game of Thrones / Сезон 1 / Серии 10 из 10 (Тимоти Ван Паттен) [2011, Драма, фэнтези, приключения, UHD BDRip 2160p] DUB (rus, ukr) + 3xMVO

Игра престолов через торрент piratbit.org

Размер: 164.97 GB | Добавлен: 4 года 3 мес. назад | Торрент скачан:36 раз
Смотреть онлайн Игра престолов | Скачать   

05-06-2018 08:22 Игра престолов Скачать торрент  

Игра престолов / Game of ThronesСезон 1
Год выпуска: 2011
Страна: США, Великобритания
Жанр: фэнтези, боевик, драма, мелодрама, приключения
Продолжительность: 10 x ~ 00:56:00
Перевод: Дублированный, профессиональный многоголосый
Субтитры: Русские, английские, испанские, французские, украинские, немецкие, португальские, итальянские, голландские, шведские, норвежские, датские, финские, чешские, польские, венгерские, румынские, греческие, турецкие, китайские
Режиссер: Тимоти Ван Паттен, Брайан Кирк, Даниэль Минахан, Алан Тейлор
В ролях:

Питер Динклэйдж (Tyrion Lannister), Лина Хиди (Cersei Lannister), Эмилия Кларк (Daenerys Targaryen), Кит Харингтон (Jon Snow), Софи Тернер (Sansa Stark), Мэйси Уильямс (Arya Stark), Николай Костер-Вальдау (Jaime Lannister), Иэн Глен (Jorah Mormont), Алфи Аллен (Theon Greyjoy), Джон Брэдли (Samwell Tarly), Эйдан Гиллен (Petyr «Littlefinger» Baelish), Конлет Хилл (Lord Varys)
Описание:
К концу подходит время благоденствия, и лето, длившееся почти десятилетие, угасает. Вокруг средоточия власти Семи королевств, Железного трона, зреет заговор, и в это непростое время король решает искать поддержки у друга юности Эддарда Старка. В мире, где все - от короля до наемника - рвутся к власти, плетут интриги и готовы вонзить нож в спину, есть место и благородству, состраданию и любви. Между тем, никто не замечает пробуждение тьмы из легенд далеко на Севере - и лишь Стена защищает живых к югу от нее.
Рейтинг:

MPAA: R - Лицам до 17 лет обязательно присутствие взрослого
Качество: UHD BDRip 2160p
Формат: MKV
Видео: HEVC, HDR, 20.8 Мбит/с, 3840x2160, 23.976 Кадр/с
Аудио 1: Русский DTS, 6 ch, ~ 768 Кбит/с - Дубляж
Аудио 2: Русский DTS-HD MA, 6 ch, ~ 4101 Кбит/с - AlexFilm
Аудио 3: Русский DTS-HD MA, 6 ch, 4092 Кбит/с - FOXlife
Аудио 4: Русский DTS-HD MA, 6 ch, 3840 Кбит/с - Студия Кравец
Аудио 5: Украинский AC3, 2 ch, 192 Кбит/с - Дубляж TET
Аудио 6: Английский TrueHD, 8 ch, 7887 Кбит/с - Original
Аудио 7: Английский AC3, 6 ch, 640 Кбит/с - Original
Аудио 8: Английский AC3, 6 ch, 448 Кбит/с - Commentary
Навигация по главам: есть
* 01 серия: Зима близко / Winter Is Coming
* 02 серия: Королевский тракт / The Kingsroad
* 03 серия: Лорд Сноу / Lord Snow
* 04 серия: Калеки, бастарды и сломанные вещи / Cripples, Bastards, and Broken Things
* 05 серия: Волк и лев / The Wolf and the Lion
* 06 серия: Золотая корона / A Golden Crown
* 07 серия: Побеждай или умри / You Win or You Die
* 08 серия: Остриё / The Pointy End
* 09 серия: Бейелор / Baelor
* 10 серия: Пламя и кровь / Fire and Blood
Complete name : F:\Open Matte\Game.of.Thrones.S01.2160p.UHD.BluRay.x265-SpaceHD13\Game.of.Thrones.S01E01.2160p.UHD.BluRay.x265-SpaceHD13.mkv
Format : Matroska
Format version : Version 4 / Version 2
File size : 17.4 GiB
Duration : 1 h 1 min
Overall bit rate mode : Variable
Overall bit rate : 40.5 Mb/s
Movie name : Game.of.Thrones.S01E01.2160p.UHD.BluRay.x265-SpaceHD13
Encoded date : UTC 2018-06-04 21:10:55
Writing application : mkvmerge v22.0.0 ('At The End Of The World') 64-bit
Writing library : libebml v1.3.5 + libmatroska v1.4.8

Video
ID : 1
Format : HEVC
Format/Info : High Efficiency Video Coding
Commercial name : HDR10
Format profile : Main 10@L5.1@High
Codec ID : V_MPEGH/ISO/HEVC
Duration : 1 h 1 min
Bit rate : 20.8 Mb/s
Width : 3 840 pixels
Height : 2 160 pixels
Display aspect ratio : 16:9
Frame rate mode : Constant
Frame rate : 23.976 (24000/1001) FPS
Color space : YUV
Chroma subsampling : 4:2:0 (Type 2)
Bit depth : 10 bits
Bits/(Pixel*Frame) : 0.105
Stream size : 8.98 GiB (51%)
Title : Game.of.Thrones.S01E01.2160p.UHD.BluRay.x265-SpaceHD13
Writing library : x265 2.8+9-e3ff1e578df3:[Windows][GCC 8.1.0][64 bit] 10bit
Encoding settings : cpuid=1111039 / frame-threads=4 / numa-pools=16 / wpp / no-pmode / no-pme / no-psnr / no-ssim / log-level=2 / input-csp=1 / input-res=3840x2160 / interlace=0 / total-frames=88714 / level-idc=51 / high-tier=1 / uhd-bd=0 / ref=4 / no-allow-non-conformance / repeat-headers / annexb / aud / hrd / info / hash=0 / no-temporal-layers / no-open-gop / min-keyint=24 / keyint=240 / gop-lookahead=0 / bframes=4 / b-adapt=2 / b-pyramid / bframe-bias=0 / rc-lookahead=25 / lookahead-slices=4 / scenecut=40 / radl=0 / no-intra-refresh / ctu=64 / min-cu-size=8 / rect / no-amp / max-tu-size=32 / tu-inter-depth=1 / tu-intra-depth=1 / limit-tu=0 / rdoq-level=2 / dynamic-rd=0.00 / no-ssim-rd / signhide / no-tskip / nr-intra=0 / nr-inter=0 / no-constrained-intra / no-strong-intra-smoothing / max-merge=3 / limit-refs=3 / limit-modes / me=3 / subme=3 / merange=57 / temporal-mvp / weightp / no-weightb / no-analyze-src-pics / deblock=-3:-3 / no-sao / no-sao-non-deblock / rd=4 / no-early-skip / rskip / no-fast-intra / no-tskip-fast / no-cu-lossless / no-b-intra / no-splitrd-skip / rdpenalty=0 / psy-rd=2.00 / psy-rdoq=1.00 / no-rd-refine / no-lossless / cbqpoffs=0 / crqpoffs=0 / rc=crf / crf=17.0 / qcomp=0.60 / qpstep=4 / stats-write=0 / stats-read=0 / vbv-maxrate=160000 / vbv-bufsize=160000 / vbv-init=0.9 / crf-max=0.0 / crf-min=0.0 / ipratio=1.40 / pbratio=1.30 / aq-mode=1 / aq-strength=1.00 / cutree / zone-count=0 / no-strict-cbr / qg-size=32 / no-rc-grain / qpmax=69 / qpmin=0 / no-const-vbv / sar=1 / overscan=0 / videoformat=5 / range=0 / colorprim=9 / transfer=16 / colormatrix=9 / chromaloc=1 / chromaloc-top=2 / chromaloc-bottom=2 / display-window=0 / master-display=G(13250,34500)B(7500,3000)R(34000,16000)WP(15635,16450)L(10000000,20) / max-cll=0,0 / min-luma=0 / max-luma=1023 / log2-max-poc-lsb=8 / vui-timing-info / vui-hrd-info / slices=1 / no-opt-qp-pps / no-opt-ref-list-length-pps / no-multi-pass-opt-rps / scenecut-bias=0.05 / no-opt-cu-delta-qp / no-aq-motion / hdr / hdr-opt / no-dhdr10-opt / no-idr-recovery-sei / analysis-reuse-level=5 / scale-factor=0 / refine-intra=0 / refine-inter=0 / refine-mv=0 / no-limit-sao / ctu-info=0 / no-lowpass-dct / refine-mv-type=0 / copy-pic=1 / max-ausize-factor=1.0 / no-dynamic-refine / no-single-sei
Language : Russian
Default : Yes
Forced : No
Color range : Limited
Color primaries : BT.2020
Transfer characteristics : PQ
Matrix coefficients : BT.2020 non-constant
Mastering display color pri : Display P3
Mastering display luminance : min: 0.0020 cd/m2, max: 1000 cd/m2

Audio #1
ID : 2
Format : DTS
Format/Info : Digital Theater Systems
Codec ID : A_DTS
Duration : 1 h 1 min
Bit rate mode : Constant
Bit rate : 768 kb/s
Channel(s) : 6 channels
Channel positions : Front: L C R, Side: L R, LFE
Sampling rate : 48.0 kHz
Frame rate : 93.750 FPS (512 SPF)
Bit depth : 24 bits
Compression mode : Lossy
Delay relative to video : 1 s 750 ms
Stream size : 339 MiB (2%)
Title : Game.of.Thrones.S01E01.2160p.UHD.BluRay.x265-SpaceHD13.DUB
Language : Russian
Default : Yes
Forced : Yes

Audio #2
ID : 3
Format : DTS
Format/Info : Digital Theater Systems
Format profile : MA / Core
Codec ID : A_DTS
Duration : 1 h 1 min
Bit rate mode : Variable / Constant
Bit rate : 4 101 kb/s / 1 509 kb/s
Channel(s) : 6 channels
Channel positions : Front: L C R, Side: L R, LFE
Sampling rate : 48.0 kHz
Frame rate : 93.750 FPS (512 SPF)
Bit depth : 24 bits
Compression mode : Lossless / Lossy
Delay relative to video : 1 s 750 ms
Stream size : 1.76 GiB (10%)
Title : Game.of.Thrones.S01E01.2160p.UHD.BluRay.x265-SpaceHD13.AlexFilm
Language : Russian
Default : No
Forced : No

Audio #3
ID : 4
Format : DTS
Format/Info : Digital Theater Systems
Format profile : MA / Core
Codec ID : A_DTS
Duration : 1 h 1 min
Bit rate mode : Variable / Constant
Bit rate : 4 092 kb/s / 1 509 kb/s
Channel(s) : 6 channels
Channel positions : Front: L C R, Side: L R, LFE
Sampling rate : 48.0 kHz
Frame rate : 93.750 FPS (512 SPF)
Bit depth : 24 bits
Compression mode : Lossless / Lossy
Delay relative to video : 1 s 750 ms
Stream size : 1.76 GiB (10%)
Title : Game.of.Thrones.S01E01.2160p.UHD.BluRay.x265-SpaceHD13.Студия Кравец
Language : Russian
Default : No
Forced : No

Audio #4
ID : 5
Format : DTS
Format/Info : Digital Theater Systems
Format profile : MA / Core
Codec ID : A_DTS
Duration : 1 h 1 min
Bit rate mode : Variable / Constant
Bit rate : 4 089 kb/s / 1 509 kb/s
Channel(s) : 6 channels
Channel positions : Front: L C R, Side: L R, LFE
Sampling rate : 48.0 kHz
Frame rate : 93.750 FPS (512 SPF)
Bit depth : 24 bits
Compression mode : Lossless / Lossy
Delay relative to video : 1 s 750 ms
Stream size : 1.76 GiB (10%)
Title : Game.of.Thrones.S01E01.2160p.UHD.BluRay.x265-SpaceHD13.FOXlife
Language : Russian
Default : No
Forced : No

Audio #5
ID : 6
Format : AC-3
Format/Info : Audio Coding 3
Codec ID : A_AC3
Duration : 1 h 1 min
Bit rate mode : Constant
Bit rate : 192 kb/s
Channel(s) : 2 channels
Channel positions : Front: L R
Sampling rate : 48.0 kHz
Frame rate : 31.250 FPS (1536 SPF)
Bit depth : 16 bits
Compression mode : Lossy
Delay relative to video : 1 s 750 ms
Stream size : 84.6 MiB (0%)
Title : Game.of.Thrones.S01E01.2160p.UHD.BluRay.x265-SpaceHD13.Дубляж, TET
Language : Ukrainian
Service kind : Complete Main
Default : No
Forced : No

Audio #6
ID : 7
Format : TrueHD
Format profile : TrueHD+Atmos / TrueHD
Codec ID : A_TRUEHD
Duration : 1 h 1 min
Bit rate mode : Variable
Bit rate : 5 056 kb/s
Maximum bit rate : 7 887 kb/s
Channel(s) : Object Based / 8 channels
Channel positions : Object Based / Front: L C R, Side: L R, Back: L R, LFE
Sampling rate : / 48.0 kHz
Frame rate : 1 200.000 FPS (40 SPF)
Compression mode : Lossless
Stream size : 2.18 GiB (12%)
Title : Game.of.Thrones.S01E01.2160p.UHD.BluRay.x265-SpaceHD13.Atmos 7.1
Language : English
Default : No
Forced : No

Audio #7
ID : 8
Format : AC-3
Format/Info : Audio Coding 3
Codec ID : A_AC3
Duration : 1 h 1 min
Bit rate mode : Constant
Bit rate : 640 kb/s
Channel(s) : 6 channels
Channel positions : Front: L C R, Side: L R, LFE
Sampling rate : 48.0 kHz
Frame rate : 31.250 FPS (1536 SPF)
Bit depth : 16 bits
Compression mode : Lossy
Stream size : 282 MiB (2%)
Title : Game.of.Thrones.S01E01.2160p.UHD.BluRay.x265-SpaceHD13.AC-3 5.1
Language : English
Service kind : Complete Main
Default : No
Forced : No

Audio #8
ID : 9
Format : AC-3
Format/Info : Audio Coding 3
Codec ID : A_AC3
Duration : 1 h 1 min
Bit rate mode : Constant
Bit rate : 448 kb/s
Channel(s) : 6 channels
Channel positions : Front: L C R, Side: L R, LFE
Sampling rate : 48.0 kHz
Frame rate : 31.250 FPS (1536 SPF)
Bit depth : 16 bits
Compression mode : Lossy
Stream size : 198 MiB (1%)
Title : Game.of.Thrones.S01E01.2160p.UHD.BluRay.x265-SpaceHD13.Commentary
Language : English
Service kind : Complete Main
Default : No
Forced : No

Text #1
ID : 10
Format : UTF-8
Codec ID : S_TEXT/UTF8
Codec ID/Info : UTF-8 Plain Text
Duration : 58 min 29 s
Bit rate : 40 b/s
Count of elements : 555
Stream size : 17.2 KiB (0%)
Title : Stripped SRT
Language : English
Default : No
Forced : No

Text #2
ID : 11
Format : UTF-8
Codec ID : S_TEXT/UTF8
Codec ID/Info : UTF-8 Plain Text
Duration : 1 h 0 min
Bit rate : 42 b/s
Count of elements : 645
Stream size : 18.8 KiB (0%)
Title : SDH SRT
Language : English
Default : No
Forced : No

Text #3
ID : 12
Format : PGS
Muxing mode : zlib
Codec ID : S_HDMV/PGS
Codec ID/Info : Picture based subtitle format used on BDs/HD-DVDs
Duration : 1 h 0 min
Bit rate : 33.7 kb/s
Count of elements : 1290
Stream size : 14.5 MiB (0%)
Title : SDH
Language : English
Default : No
Forced : No

Text #4
ID : 13
Format : PGS
Muxing mode : zlib
Codec ID : S_HDMV/PGS
Codec ID/Info : Picture based subtitle format used on BDs/HD-DVDs
Duration : 58 min 29 s
Bit rate : 32.3 kb/s
Count of elements : 1102
Stream size : 13.5 MiB (0%)
Language : French
Default : No
Forced : No

Text #5
ID : 14
Format : PGS
Muxing mode : zlib
Codec ID : S_HDMV/PGS
Codec ID/Info : Picture based subtitle format used on BDs/HD-DVDs
Duration : 58 min 29 s
Bit rate : 31.7 kb/s
Count of elements : 1104
Stream size : 13.3 MiB (0%)
Language : Spanish
Default : No
Forced : No

Text #6
ID : 15
Format : PGS
Muxing mode : zlib
Codec ID : S_HDMV/PGS
Codec ID/Info : Picture based subtitle format used on BDs/HD-DVDs
Duration : 58 min 29 s
Bit rate : 31.9 kb/s
Count of elements : 1104
Stream size : 13.3 MiB (0%)
Language : Spanish
Default : No
Forced : No

Text #7
ID : 16
Format : PGS
Muxing mode : zlib
Codec ID : S_HDMV/PGS
Codec ID/Info : Picture based subtitle format used on BDs/HD-DVDs
Duration : 58 min 29 s
Bit rate : 29.2 kb/s
Count of elements : 1102
Stream size : 12.2 MiB (0%)
Language : Portuguese
Default : No
Forced : No

Text #8
ID : 17
Format : PGS
Muxing mode : zlib
Codec ID : S_HDMV/PGS
Codec ID/Info : Picture based subtitle format used on BDs/HD-DVDs
Duration : 58 min 28 s
Bit rate : 26.5 kb/s
Count of elements : 1022
Stream size : 11.1 MiB (0%)
Language : Portuguese
Default : No
Forced : No

Text #9
ID : 18
Format : PGS
Muxing mode : zlib
Codec ID : S_HDMV/PGS
Codec ID/Info : Picture based subtitle format used on BDs/HD-DVDs
Duration : 1 h 0 min
Bit rate : 32.9 kb/s
Count of elements : 1296
Stream size : 14.2 MiB (0%)
Language : Italian
Default : No
Forced : No

Text #10
ID : 19
Format : PGS
Muxing mode : zlib
Codec ID : S_HDMV/PGS
Codec ID/Info : Picture based subtitle format used on BDs/HD-DVDs
Duration : 58 min 29 s
Bit rate : 37.0 kb/s
Count of elements : 1102
Stream size : 15.5 MiB (0%)
Language : German
Default : No
Forced : No

Text #11
ID : 20
Format : PGS
Muxing mode : zlib
Codec ID : S_HDMV/PGS
Codec ID/Info : Picture based subtitle format used on BDs/HD-DVDs
Duration : 58 min 29 s
Bit rate : 29.6 kb/s
Count of elements : 1076
Stream size : 12.4 MiB (0%)
Language : Dutch
Default : No
Forced : No

Text #12
ID : 21
Format : PGS
Muxing mode : zlib
Codec ID : S_HDMV/PGS
Codec ID/Info : Picture based subtitle format used on BDs/HD-DVDs
Duration : 58 min 29 s
Bit rate : 29.3 kb/s
Count of elements : 1104
Stream size : 12.3 MiB (0%)
Language : Swedish
Default : No
Forced : No

Text #13
ID : 22
Format : PGS
Muxing mode : zlib
Codec ID : S_HDMV/PGS
Codec ID/Info : Picture based subtitle format used on BDs/HD-DVDs
Duration : 58 min 29 s
Bit rate : 29.5 kb/s
Count of elements : 1104
Stream size : 12.4 MiB (0%)
Language : Norwegian
Default : No
Forced : No

Text #14
ID : 23
Format : PGS
Muxing mode : zlib
Codec ID : S_HDMV/PGS
Codec ID/Info : Picture based subtitle format used on BDs/HD-DVDs
Duration : 58 min 29 s
Bit rate : 31.2 kb/s
Count of elements : 1102
Stream size : 13.1 MiB (0%)
Language : Danish
Default : No
Forced : No

Text #15
ID : 24
Format : PGS
Muxing mode : zlib
Codec ID : S_HDMV/PGS
Codec ID/Info : Picture based subtitle format used on BDs/HD-DVDs
Duration : 58 min 29 s
Bit rate : 27.1 kb/s
Count of elements : 1104
Stream size : 11.3 MiB (0%)
Language : Finnish
Default : No
Forced : No

Text #16
ID : 25
Format : PGS
Muxing mode : zlib
Codec ID : S_HDMV/PGS
Codec ID/Info : Picture based subtitle format used on BDs/HD-DVDs
Duration : 58 min 28 s
Bit rate : 24.1 kb/s
Count of elements : 1164
Stream size : 10.1 MiB (0%)
Language : Russian
Default : No
Forced : No

Text #17
ID : 26
Format : PGS
Muxing mode : zlib
Codec ID : S_HDMV/PGS
Codec ID/Info : Picture based subtitle format used on BDs/HD-DVDs
Duration : 57 min 13 s
Bit rate : 29.3 kb/s
Count of elements : 900
Stream size : 12.0 MiB (0%)
Language : Czech
Default : No
Forced : No

Text #18
ID : 27
Format : PGS
Muxing mode : zlib
Codec ID : S_HDMV/PGS
Codec ID/Info : Picture based subtitle format used on BDs/HD-DVDs
Duration : 58 min 23 s
Bit rate : 24.7 kb/s
Count of elements : 944
Stream size : 10.3 MiB (0%)
Language : Polish
Default : No
Forced : No

Text #19
ID : 28
Format : PGS
Muxing mode : zlib
Codec ID : S_HDMV/PGS
Codec ID/Info : Picture based subtitle format used on BDs/HD-DVDs
Duration : 58 min 20 s
Bit rate : 24.5 kb/s
Count of elements : 1068
Stream size : 10.2 MiB (0%)
Language : Hungarian
Default : No
Forced : No

Text #20
ID : 29
Format : PGS
Muxing mode : zlib
Codec ID : S_HDMV/PGS
Codec ID/Info : Picture based subtitle format used on BDs/HD-DVDs
Duration : 57 min 13 s
Bit rate : 24.4 kb/s
Count of elements : 1002
Stream size : 9.99 MiB (0%)
Language : Romanian
Default : No
Forced : No

Text #21
ID : 30
Format : PGS
Muxing mode : zlib
Codec ID : S_HDMV/PGS
Codec ID/Info : Picture based subtitle format used on BDs/HD-DVDs
Duration : 57 min 14 s
Bit rate : 22.4 kb/s
Count of elements : 766
Stream size : 9.17 MiB (0%)
Language : Slovenian
Default : No
Forced : No

Text #22
ID : 31
Format : PGS
Muxing mode : zlib
Codec ID : S_HDMV/PGS
Codec ID/Info : Picture based subtitle format used on BDs/HD-DVDs
Duration : 57 min 13 s
Bit rate : 22.8 kb/s
Count of elements : 766
Stream size : 9.32 MiB (0%)
Language : Croatian
Default : No
Forced : No

Text #23
ID : 32
Format : PGS
Muxing mode : zlib
Codec ID : S_HDMV/PGS
Codec ID/Info : Picture based subtitle format used on BDs/HD-DVDs
Duration : 59 min 35 s
Bit rate : 28.1 kb/s
Count of elements : 1118
Stream size : 12.0 MiB (0%)
Language : Greek
Default : No
Forced : No

Text #24
ID : 33
Format : PGS
Muxing mode : zlib
Codec ID : S_HDMV/PGS
Codec ID/Info : Picture based subtitle format used on BDs/HD-DVDs
Duration : 58 min 29 s
Bit rate : 25.8 kb/s
Count of elements : 1104
Stream size : 10.8 MiB (0%)
Language : Turkish
Default : No
Forced : No

Text #25
ID : 34
Format : PGS
Muxing mode : zlib
Codec ID : S_HDMV/PGS
Codec ID/Info : Picture based subtitle format used on BDs/HD-DVDs
Duration : 58 min 20 s
Bit rate : 15.9 kb/s
Count of elements : 862
Stream size : 6.65 MiB (0%)
Language : Hebrew
Default : No
Forced : No

Text #26
ID : 35
Format : PGS
Muxing mode : zlib
Codec ID : S_HDMV/PGS
Codec ID/Info : Picture based subtitle format used on BDs/HD-DVDs
Duration : 58 min 29 s
Bit rate : 19.8 kb/s
Count of elements : 1128
Stream size : 8.30 MiB (0%)
Language : Chinese
Default : No
Forced : No

Text #27
ID : 36
Format : PGS
Muxing mode : zlib
Codec ID : S_HDMV/PGS
Codec ID/Info : Picture based subtitle format used on BDs/HD-DVDs
Duration : 58 min 36 s
Bit rate : 20.9 kb/s
Count of elements : 1160
Stream size : 8.77 MiB (0%)
Language : Ukrainian
Default : Yes
Forced : No

Text #28
ID : 37
Format : PGS
Muxing mode : zlib
Codec ID : S_HDMV/PGS
Codec ID/Info : Picture based subtitle format used on BDs/HD-DVDs
Duration : 57 min 13 s
Bit rate : 16.2 kb/s
Count of elements : 1056
Stream size : 6.63 MiB (0%)
Language : Korean
Default : No
Forced : No

Text #29
ID : 38
Format : PGS
Muxing mode : zlib
Codec ID : S_HDMV/PGS
Codec ID/Info : Picture based subtitle format used on BDs/HD-DVDs
Duration : 58 min 29 s
Bit rate : 20.1 kb/s
Count of elements : 1106
Stream size : 8.42 MiB (0%)
Language : Thai
Default : No
Forced : No

Menu
00:00:00.000 : en:00:00:00.000
00:00:08.008 : en:00:00:08.008
00:07:18.438 : en:00:07:18.438
00:08:58.538 : en:00:08:58.538
00:18:16.512 : en:00:18:16.512
00:28:48.560 : en:00:28:48.560
00:39:37.584 : en:00:39:37.584
00:50:02.041 : en:00:50:02.041
01:00:34.631 : en:01:00:34.631



Скачать Игра престолов через торрент https://b.radikal.ru/b39/1806/e9/e8720cb63c31.png Скачать, смотреть онлайн Игра престолов бесплантно в хорошем качестве Описание: К концу подходит время благоденствия, и лето, длившееся почти десятилетие, угасает. Вокруг средоточия власти Семи королевств, ... 10 10 6
Торрент: Зарегистрирован [2018-06-05 08:22] · скачан: 36 раз
Статус: √ проверено
Размер: 164.97 GB
Как cкачать? Как скачать Игра престолов через торрент | UTorrent

% Раздел Тема Автор DL S | L
Игра престолов [ 785.59 GB ] Игра престолов / Game of Thrones / Сезон: 1-7 из 7 / Серии: 1-67 из 67 | DUB + 11xMVO | 1080p sheker187 Скачать
1 | 0

28-11-2019 20:33  

Отключить вcю реклaмy на сайте

15-04-2021 02:58 Игра престолов Скачать торрент  

здравствуйте, а подскажите, почему уже какой торрент не могу скачать, то скорость очень маленькая, то просто на месте стоит и всё? уже какой день не могу скачать, раньше всегда была нормальная скорость, мб 6 в секунду, а сейчас 1-2 , а бывает и того меньше. очень хочется игру престолов в 4к



    Дорогой пользователь! Огромная просьба, поблагодарите релизера, оцените раздачу и оставьте свои комментарий, если Вы скачали Игра престолов через торрент бесплатно!!
    Комментировать посты могут только пользователи прошедшие не сложную регистрацию
    Показать сообщения:    


    Игра престолов через торрент
    Скачать бесплатно Игра престолов
    Игра престолов скачать торрент
    Игра престолов смотреть онлайн
    Cкачать фильм Игра престолов бесплатно
    Игра престолов скачать торрент в хорошем качестве
    Игра престолов смотреть онлайн бесплатно в хорошем качестве
    Вы не можете начинать темы
    Вы не можете отвечать на сообщения
    Вы не можете редактировать свои сообщения
    Вы не можете удалять свои сообщения
    Вы не можете голосовать в опросах
    Вы не можете прикреплять файлы к сообщениям
    Вы можете скачивать файлы