Всегда рабочее зеркало без VPN и Proxy просто перед .vidak.icu напиши любое слово или цифру, Пример http://loi.vidak.icu

>

7.4

iTunes

7.4

2 сезон

6.6

iTunes

1

7.4

2 сезон

7.2

iTunes

6.0

MVO

13

6.1

iTunes

8.3

Пиратка

30

ULTIMATE

pack

9.9

Лицензия

ВАЖНО

ИГРА 18+

pack

7.3

RePack

MK11

7.7

RePack

jed

7.8

RePack

fifa19

8.5

RePack

RDR2

RePack

NEED FOR SPEED™ PAYBACK

1 сезон

9 сезон

Бесстыжие 9 сезон

Все сериалы

все сериалы на PB.wtf

RePack

FAR CRY 5

Anonymous, добрый вечер, мы катастрофически не успеваем собрать деньги на оплату серверов, помогите нам пожалуйста 5,10,15р., для нас важна любая помощь . В качестве благодарности мы отключим Вам всю рекламу на сайте (укажите свой ник в строку Ваше имя)!

×
  
Magnet ссылка

Гупёшка (Влад Фурман) [2018, драма, TS 720p] piratbit.org

Гупёшка через торрент piratbit.org

Размер: 2.3 GB | Добавлен: 3 года 7 мес. назад | Торрент скачан:16 раз
Смотреть онлайн Гупёшка | Скачать    Ребята, помогите собрать деньги на оплату серверов!!!

05-06-2018 11:33 Гупёшка Скачать торрент  

ГупёшкаГод выпуска: 2018
Страна: Россия
Жанр: драма
Продолжительность: 01:21:19
Перевод: Не требуется
Субтитры: отсутствуют

Режиссер: Влад Фурман



В ролях:

Неля Попова, Михаил Разумовский, Евгений Баранов

Описание:

Однажды Тамара вышла выбросить мусор и встретила у подъезда Пашу - с бутылкой вина и желанием поговорить. Напросившись в гости, мужчина попадает в квартиру новой знакомой, а она рассказывает ему, как сильно любит мужа Лёнечку, который вывез её, «бракованную», из деревни, посадил дома за швейную машинку и назвал «гупёшкой» - в честь аквариумной рыбки, покорной, молчаливой, невольно преданной хозяину.

Качество: TS 720p
Формат: MKV

Видео: h.264, 3 666 Кбит/с, 1280x528
Аудио: Русский, (AC3, 2 ch, 384 Кбит/с)
скриншот  скриншот  скриншот  

Общее
Уникальный идентификатор : 195628353736257596204568385393361217781 (0x932CA68371C9F049A6B36EB88C00E8F5)
Полное имя : F:\GoPieSHka.2O18.O.TS.72Op.mkv
Формат : Matroska
Версия формата : Version 2
Размер файла : 2,30 Гбайт
Продолжительность : 1 ч. 21 м.
Режим общего битрейта : Переменный
Общий поток : 4052 Кбит/сек
Дата кодирования : UTC 2018-06-04 05:46:46
Программа кодирования : mkvmerge v8.3.0 ('Over the Horizon') 64bit
Библиотека кодирования : libebml v1.3.1 + libmatroska v1.4.2

Видео
Идентификатор : 1
Формат : AVC
Формат/Информация : Advanced Video Codec
Профиль формата : High@L4.1
Параметр CABAC формата : Да
Параметр RefFrames формата : 4 кадра
Идентификатор кодека : V_MPEG4/ISO/AVC
Продолжительность : 1 ч. 21 м.
Вид битрейта : Переменный
Битрейт : 3666 Кбит/сек
Максимальный битрейт : 4000 Кбит/сек
Ширина : 1280 пикселей
Высота : 528 пикселей
Соотношение сторон : 2,40:1
Режим частоты кадров : Постоянный
Частота кадров : 23,976 (24000/1001) кадра/сек
Стандарт вещания : Component
Цветовое пространство : YUV
Субдискретизация насыщенности : 4:2:0
Битовая глубина : 8 бит
Тип развёртки : Прогрессивная
Бит/(Пиксели*Кадры) : 0.221
Размер потока : 2,04 Гбайт (89%)
Default : Да
Forced : Нет
Цветовой диапазон : Limited
Основные цвета : BT.709
Характеристики трансфера : BT.709
Коэффициенты матрицы : BT.709

Аудио
Идентификатор : 2
Формат : AC-3
Формат/Информация : Audio Coding 3
Расширение режима : CM (complete main)
Параметр Endianness формата : Big
Идентификатор кодека : A_AC3
Продолжительность : 1 ч. 21 м.
Вид битрейта : Постоянный
Битрейт : 384 Кбит/сек
Каналы : 2 канала
Расположение каналов : Front: L R
Частота : 48,0 КГц
Частота кадров : 31,250 кадров/сек (1536 spf)
Метод сжатия : С потерями
Размер потока : 223 Мбайт (9%)
Default : Да
Forced : Нет

piratbit.org



Скачать Гупёшка через торрент http://img12.lostpic.net/2018/06/05/793b7dad8f7cfdf3fdf28f1f5887c20c.jpg Скачать, смотреть онлайн Гупёшка бесплантно в хорошем качестве Описание: Однажды Тамара вышла выбросить мусор и встретила у подъезда Пашу - с бутылкой вина и желанием поговорить. Напросившись в гости, ... 7 10 3
Торрент: Зарегистрирован [2018-06-05 11:33] · скачан: 16 раз
Статус: T временная
Размер: 2.3 GB
Как cкачать? Как скачать Гупёшка через торрент | UTorrent

% Раздел Тема Автор DL S | L
T Наши фильмы (мультфильмы) cо спонсором показа (Новинки AVI/MKV) [ 1.37 GB ] Гупёшка [2018 TS] bober100 Скачать
1 | 0

28-11-2019 20:33  

Отключить всю рекламу на сайте

    Дорогой пользователь! Огромная просьба, поблагодарите релизера, оцените раздачу и оставьте свои комментарий, если Вы скачали Гупёшка через торрент бесплатно!
    Комментировать посты могут только пользователи прошедшие не сложную регистрацию
    Показать сообщения:    

    Гупёшка через торрент
    Скачать бесплатно Гупёшка
    Гупёшка скачать торрент
    Гупёшка смотреть онлайн
    Cкачать фильм Гупёшка бесплатно
    Гупёшка скачать торрент в хорошем качестве
    Гупёшка смотреть онлайн бесплатно в хорошем качестве


    Вы не можете начинать темы
    Вы не можете отвечать на сообщения
    Вы не можете редактировать свои сообщения
    Вы не можете удалять свои сообщения
    Вы не можете голосовать в опросах
    Вы не можете прикреплять файлы к сообщениям
    Вы можете скачивать файлы