Доктор Стрэндж

Лицензия

Добыча

MVO

Дом дракона

1 сезон

Тор

Лицензия

Мэверик

Лицензия

Там, где раки поют

MVO

Властелин колец

1 сезон

Ultimate

pack

Рекомендуем

30

Repack

ВАЖНО

ВАЖНО

Ghostwire

RePack

jed

RePack

nioh2

RePack

RDR2

RePack

NEED FOR SPEED™ PAYBACK

RePack

скачать торрент

Кинопоиск HD

Острые козырьки 6 сезон

6 сезон

FAR CRY 6

RePack

скачать торрент

Лицензия

скачать торрент

MVO

1

1 сезон

скачать торрент

1 сезон

скачать торрент

Лицензия

  

Игра престолов / Game of Thrones / Сезон 1 / Серии 10 из 10 (Тимоти Ван Паттен) [2011, Драма, фэнтези, приключения, UHD BDRemux 2160p] Дубляж [Лицензия BD EUR]

Игра престолов через торрент piratbit.org

Размер: 295.96 GB | Добавлен: 4 года 3 мес. назад | Торрент скачан:6 раз
Смотреть онлайн Игра престолов | Скачать   

05-06-2018 17:26 Игра престолов Скачать торрент  

Игра престолов / Game of ThronesСезон 1
Год выпуска: 2011
Страна: США, Великобритания
Жанр: фэнтези, боевик, драма, мелодрама, приключения
Продолжительность: 10 x ~ 00:56:00
Перевод: Дублированный (Лицензия BD EUR)
Субтитры: Английские, французские, испанские, немецкие, итальянские, чешские, венгерские, польские, русские, голландские, датские, финские, норвежские, шведские, хорватские, греческие, иврит, португальские, румынские, словенские, турецкие, китайские, корейские, тайские
Режиссер: Тимоти Ван Паттен, Брайан Кирк, Даниэль Минахан, Алан Тейлор
В ролях:

Питер Динклэйдж (Tyrion Lannister), Лина Хиди (Cersei Lannister), Эмилия Кларк (Daenerys Targaryen), Кит Харингтон (Jon Snow), Софи Тернер (Sansa Stark), Мэйси Уильямс (Arya Stark), Николай Костер-Вальдау (Jaime Lannister), Иэн Глен (Jorah Mormont), Алфи Аллен (Theon Greyjoy), Джон Брэдли (Samwell Tarly), Эйдан Гиллен (Petyr «Littlefinger» Baelish), Конлет Хилл (Lord Varys)
Описание:
К концу подходит время благоденствия, и лето, длившееся почти десятилетие, угасает. Вокруг средоточия власти Семи королевств, Железного трона, зреет заговор, и в это непростое время король решает искать поддержки у друга юности Эддарда Старка. В мире, где все - от короля до наемника - рвутся к власти, плетут интриги и готовы вонзить нож в спину, есть место и благородству, состраданию и любви. Между тем, никто не замечает пробуждение тьмы из легенд далеко на Севере - и лишь Стена защищает живых к югу от нее.
Рейтинг:

MPAA: R - Лицам до 17 лет обязательно присутствие взрослого
Качество: UHD BDRemux 2160p
Формат: MKV
Видео: HEVC, HDR, 51700 Кбит/с, 3840x2160, 23.976 кадр/с
Аудио#1: AC3, 6 ch, 640 kbps - Английский
Аудио#2: Dolby Atmos, 8 ch, 5056 kbps - Английский
Аудио#3: AC3, 6 ch, 448 kbps - Французский
Аудио#4: AC3, 2 ch, 256 kbps - Испанский
Аудио#5: AC3, 6 ch, 448 kbps - Испанский
Аудио#6: AC3, 6 ch, 448 kbps - Немецкий
Аудио#7: AC3, 6 ch, 448 kbps - Итальянский
Аудио#8: DTS, 2 ch, 768 kbps - Португальский
Аудио#9: DTS, 2 ch, 768 kbps - Чешский
Аудио#10: DTS, 2 ch, 768 kbps - Венгерский
Аудио#11: DTS, 2 ch, 768 kbps - Польский
Аудио#12: DTS, 6 ch, 768 kbps - Русский
Аудио#13: AC3, 6 ch, 640 kbps kbps - Русский
Аудио#14: AC3, 6 ch, 448 kbps - Английский
Аудио#15: DTS-HD MA, 8 ch, 4109 kbps - Английский
Навигация по главам: есть
* 01 серия: Зима близко / Winter Is Coming
* 02 серия: Королевский тракт / The Kingsroad
* 03 серия: Лорд Сноу / Lord Snow
* 04 серия: Калеки, бастарды и сломанные вещи / Cripples, Bastards, and Broken Things
* 05 серия: Волк и лев / The Wolf and the Lion
* 06 серия: Золотая корона / A Golden Crown
* 07 серия: Побеждай или умри / You Win or You Die
* 08 серия: Остриё / The Pointy End
* 09 серия: Бейелор / Baelor
* 10 серия: Пламя и кровь / Fire and Blood
Video # 1
ID: 1
Формат: HEVC
Формат / Информация: Высокоэффективное видео кодирование
Коммерческое имя: HDR10
Формат профиля: Main 10 @ L5.1 @ High
Codec ID: V_MPEGH / ISO / HEVC
Продолжительность: 1 ч. 1 мин.
Скорость передачи: 51,7 Mb / s
Ширина: 3 840 пикселей
Высота: 2 160 пикселей
Соотношение сторон экрана: 16: 9
Режим частоты кадров: постоянный
Частота кадров: 23.976 (24000/1001) FPS
Цветовое пространство: YUV
Хроматическая подвыборка: 4: 2: 0 (Тип 2)
Глубина бит: 10 бит
Биты / (пиксель * Рамка): 0.260
Размер потока: 22,3 ГБ (72%)
Название : Game.of.Thrones.S01E01.2160p.BluRay.REMUX.HEVC.DTS-HD.MA.TrueHD.7.1.Atmos-FGT
По умолчанию: Да
Принудительно: Нет
Цветовая гамма: Ограниченная
Цветные праймериз: BT.2020
Характеристики передачи: PQ
Матричные коэффициенты: BT.2020 не постоянный
Освоение основных цветов дисплея: BT.2020 Освежающая
яркость дисплея: мин: 0,0020 кд / м2, макс: 1000 кд / м2

Аудио # 1
ID: 3
Формат: TrueHD
Формат профиля: TrueHD + Atmos / TrueHD
Код кодекса: A_TRUEHD
Продолжительность: 1 ч. 1 мин.
Режим битовой скорости: переменная.
Битовая скорость: 5 056 кбит / с.
Максимальная скорость передачи: 7 887 кбит / с.
Каналы: объектно-ориентированные / 8 каналов.
Позиции каналов : объектный / фронт: LCR, LR, Back: LR, LFE
Частота дискретизации: / 48,0 кГц
Частота кадров: 1 200 000 FPS (40 SPF)
Режим сжатия: Без потерь
Размер потока: 2,18 ГБ (7%)
Название: Game.of.Thrones.S01E01.2160p.BluRay.REMUX.HEVC.DTS-HD.MA.TrueHD.7.1.Atmos-FGT
Язык: английский
Значение по умолчанию: Да
Принудительное: Нет

Аудио # 2
ID: 4
Формат:
Формат DTS / Информация: Цифровые театральные системы
Формат профиля: MA / Core
Codec ID: A_DTS
Продолжительность: 1 ч 1 мин
Режим битовой скорости: переменная / постоянная
Скорость передачи: 4 109 кбит / с / 1 509 кбит / с
Канал (ы): 8 каналов / 6 каналов
Позиции каналов : Фронт: LCR, Сторона: LR, Назад: LR, LFE / Фронт: LCR, Сторона: LR, LFE
Частота дискретизации: 48,0 кГц
Частота кадров: 93,750 FPS (512 SPF)
Глубина бит: 24 бит
Режим сжатия : Без потерь / потерь
Размер потока: 1,77 ГБ (6%)
Название: Game.of.Thrones.S01E01.2160p.BluRay.REMUX. HEVC.DTS-HD.MA.TrueHD.7.1.Atmos-FGT
По умолчанию: Нет
Forced: No

Audio # 3
ID: 5
Формат: AC-3
Формат / Информация:
Аудиокодирование 3 Codec ID: A_AC3
Продолжительность: 1 ч 1 мин
Режим битовой скорости: Постоянная
Скорость передачи: 640 кбит / с
Канал (ы): 6 каналов
Позиции каналов: Фронт: LCR, Сторона: LR, LFE
Частота дискретизации: 48,0 кГц
Частота кадров: 31,250 FPS (1536 SPF)
Глубина бит: 16 бит
Режим сжатия: Lossy
Размер потока: 282 MiB (1%)
Название: Game.of.Thrones.S01E01.2160p.BluRay.REMUX.HEVC.DTS-HD.MA.TrueHD.7.1.Atmos-FGT
Язык : Русский
Тип обслуживания: Полное Основное
По умолчанию: Нет
Принудительное: Нет

Аудио # 4
ID: 6
Формат: AC-3
Формат / Информация
: Аудиокодирование 3 Codec ID: A_AC3
Продолжительность: 1 ч. 1 мин.
Режим битовой скорости: постоянный.
Скорость передачи: 640 кбит / с.
Каналы: 6 каналов.
Позиции каналов : Фронт: LCR, Сторона: LR, LFE.
Частота дискретизации: 48,0 кГц.
Частота кадров: 31,250 FPS (1536 SPF )
Бит-глубина: 16 бит
Режим сжатия: Lossy
Размер потока: 282 MiB (1%)
Название: Game.of.Thrones.S01E01.2160p.BluRay.REMUX.HEVC.DTS-HD.MA.TrueHD.7.1.Atmos-FGT
Язык: английский
Тип обслуживания: Полное Основное
По умолчанию: Нет
Принудительное: Нет

Аудио # 5
ID: 7
Формат: AC-3
Формат / Информация
: Аудиокодирование 3 Codec ID: A_AC3
Продолжительность: 1 ч 1 мин
Режим битной скорости: Постоянный
Битрейт: 448 kb / s
Channel (s): 6 каналов
Позиции канала: Фронт: LCR, Сторона: LR, LFE
Частота дискретизации: 48,0 кГц
Частота кадров: 31,250 FPS (1536 SPF)
Глубина бит: 16 бит
Режим сжатия: Потеряет
Размер потока: 198 MiB (1%)
Название: Game.of. Thrones.S01E01.2160p.BluRay.REMUX.HEVC.DTS-HD.MA.TrueHD.7.1.Atmos-FGT
Язык: французский
Тип сервиса: Полный Основной
По умолчанию: No
Forced: No

Audio # 6
ID: 8
Формат: AC-3
Формат / Информация:
Аудиокодирование 3 Codec ID: A_AC3
Продолжительность: 1 ч 1 мин
Режим битрейта : Постоянная
Скорость передачи: 256 кбит / с
Каналы: 2
канала Позиции каналов : Фронт: LR
Частота дискретизации: 48,0 кГц
Частота кадров: 31,250 FPS (1536 SPF)
Глубина бит: 16 бит
Режим сжатия: Lossy
Размер потока: 113 MiB (0%)
Название: Game.of.Thrones.S01E01.2160p.BluRay.REMUX.HEVC.DTS-HD.MA.TrueHD.7.1.Atmos-FGT
Язык: испанский
Тип обслуживания: Полное Основное
По умолчанию: No
Forced: No

Audio # 7
ID: 9
Формат: AC-3
Формат / Информация
: Аудиокодирование 3 Codec ID: A_AC3
Продолжительность: 1 ч 1 мин
Режим битовой скорости: постоянный
Скорость передачи: 448 кбит / с
Канал (ы): 6 каналов
Позиции каналов : Фронт: LCR, Сторона: LR, LFE
Частота дискретизации: 48,0 кГц
Частота кадров: 31,250 FPS (1536 SPF)
Глубина бит: 16 бит
Режим сжатия: Lossy
Stream размер: 198 MiB (1%)
Название: Game.of.Thrones.S01E01.2160p.BluRay.REMUX.HEVC.DTS-HD.MA.TrueHD.7.1.Atmos-FGT
Язык: испанский
Тип обслуживания: Complete Main
По умолчанию: No
Forced: No

Audio # 8
ID: 10
Формат: AC-3
Формат / Информация:
Аудиокодирование 3 Codec ID: A_AC3
Продолжительность: 1 ч 1 мин
Режим бит-скорости: Постоянная
Скорость передачи: 448 кбит / с
Канал (ы) : 6 каналов
Позиции каналов : Фронт: LCR, Сторона: LR, LFE
Частота дискретизации: 48,0 кГц
Частота кадров: 31.250 FPS (1536 SPF).
Бит-глубина: 16 бит.
Режим сжатия: Lossy.
Размер потока: 198 MiB (1%).
Название: Game.of.Thrones.S01E01.2160p.BluRay.REMUX.HEVC.DTS-HD.MA .TrueHD.7.1.Atmos-FGT
Язык: немецкий
Тип обслуживания: Полное Основное
По умолчанию: Нет
Принудительное: Нет

Аудио # 9
ID: 11
Формат: AC-3
Формат / Информация:
Аудиокодирование 3 Codec ID: A_AC3
Продолжительность: 1 ч 1 мин
Режим битовой скорости: Постоянная
Скорость передачи: 448 кбит / с
Каналы: 6 каналов
Позиции каналов : Фронт: LCR, Сторона: LR, LFE
Частота дискретизации : 48,0 кГц
Частота кадров: 31,250 FPS (1536 SPF)
Глубина бит: 16 бит
Режим сжатия: Потеряет
Размер потока: 198 MiB (1%)
Название: Game.of.Thrones.S01E01.2160p.BluRay.REMUX.HEVC.DTS-HD.MA.TrueHD.7.1.Atmos-FGT
Язык: итальянский
Тип обслуживания: Полное Основное
По умолчанию: Нет
Принудительное: Нет

Аудио # 10
ID: 12
Формат: DTS
Формат / Информация: Цифровые театральные системы
Codec ID: A_DTS
Продолжительность: 1 ч 1 мин
Режим битовой скорости: постоянный
Скорость передачи: 768 кбит / с
Каналы: 2
канала Позиции каналов : Фронт: LR
Частота дискретизации: 48,0 кГц
Частота кадров: 93,750 FPS (512 SPF)
Глубина бита: 24 бит
Режим сжатия: Потеряет
Размер потока: 339 MiB (1 %)
Название: Game.of.Thrones.S01E01.2160p.BluRay.REMUX.HEVC.DTS-HD.MA.TrueHD.7.1.Atmos-FGT
Язык: португальский
По умолчанию: No
Forced: No

Audio # 11
ID: 13
Формат: DTS
Формат / Информация: Цифровые театральные системы
Codec ID: A_DTS
Продолжительность: 1 ч 1 мин
Режим битовой скорости: Постоянная
Скорость передачи: 768 кбит / с
Каналы: 2
канала Позиции каналов : Фронт: LR
Частота дискретизации: 48,0 кГц
Частота кадров: 93,750 FPS (512 SPF)
Глубина бит: 24 бит
Режим сжатия: Lossy
Размер потока: 339 MiB (1%)
Название: Game.of.Thrones.S01E01.2160p.BluRay.REMUX.HEVC.DTS-HD.MA.TrueHD.7.1.Atmos-FGT
Язык: Чешский
По умолчанию: Нет
Forced: No

Audio # 12
ID: 14
Формат: DTS
Формат / Информация: Цифровые театральные системы
Codec ID: A_DTS
Продолжительность: 1 ч 1 мин
Режим битовой скорости: постоянный
Скорость передачи: 768 кбит / с
Каналы: 2
канала Позиции каналов : Фронт: LR
Частота дискретизации: 48,0 кГц
Частота кадров: 93,750 FPS (512 SPF)
Глубина бита: 24 бит
Режим сжатия: Потеряет
Размер потока: 339 MiB (1 %)
Название: Game.of.Thrones.S01E01.2160p.BluRay.REMUX.HEVC.DTS-HD.MA.TrueHD.7.1.Atmos-FGT
Язык: венгерский
По умолчанию: No
Forced: No

Аудио # 13
ID: 15
Формат: DTS
Формат / Информация: Цифровые театральные системы
Codec ID: A_DTS
Продолжительность: 1 ч 1 мин
Режим битовой скорости: Постоянная
Скорость передачи: 768 кбит / с
Каналы: 2
канала Позиции каналов : Фронт: LR
Частота дискретизации: 48,0 кГц
Частота кадров: 93,750 FPS (512 SPF)
Глубина бит: 24 бит
Режим сжатия: Lossy
Размер потока: 339 MiB (1%)
Название: Game.of.Thrones.S01E01.2160p.BluRay.REMUX.HEVC.DTS-HD.MA.TrueHD.7.1.Atmos-FGT
Язык: Польский
По умолчанию: Нет
Forced: No

Audio # 14
ID: 16
Формат: DTS
Формат / Информация: Цифровые театральные системы
Codec ID: A_DTS
Продолжительность: 1 час 1 мин
Режим бит скорости: постоянный
Скорость передачи: 768 кбит / с
Канал (ы): 6 каналов
Позиции каналов : Фронт: LCR, Сторона: LR, LFE
Частота дискретизации: 48,0 кГц
Частота кадров: 93,750 FPS (512 SPF)
Глубина бит: 24 бит
Режим сжатия: Lossy
Размер потока: 339 MiB (1%)
Название: Game.of.Thrones.S01E01.2160p.BluRay.REMUX.HEVC.DTS-HD.MA.TrueHD.7.1.Atmos-FGT
Язык: русский
По умолчанию: No
Forced: No

Audio # 15
ID: 17
Формат: AC-3
Формат / Информация:
Аудиокодирование 3 Codec ID: A_AC3
Продолжительность: 1 ч 1 мин
Режим битрейта : Постоянная
Скорость передачи: 448 кб / с
Канал (ы) : 6 каналов
Позиции каналов : Фронт: LCR, Сторона: LR, LFE
Частота дискретизации: 48,0 кГц
Частота кадров: 31.250 FPS (1536 SPF).
Бит-глубина: 16 бит.
Режим сжатия: Lossy.
Размер потока: 198 MiB (1%).
Название: Game.of.Thrones.S01E01.2160p.BluRay.REMUX.HEVC.DTS-HD.MA .TrueHD.7.1.Atmos-FGT
Язык: английский
Тип обслуживания: Полное Основное
По умолчанию: Нет
Принудительно: Нет

Текст # 1
ID: 18
Формат: PGS
Режим мультиплексирования: zlib
Codec ID: S_HDMV / PGS
Codec ID / Info: Формат субтитров на основе изображений, используемый на BD / HD-DVD
Длительность: 1 ч 0 мин
Скорость передачи: 33,7 кбит / с
Количество элементов: 1290
Размер потока: 14,5 Мибайт (0%)
Название : Английский-PGS
Язык: английский
Значение по умолчанию: Да
Принудительное: Нет

Текст № 2
ID: 19
Формат: PGS
Режим мультиплексирования: zlib
Идентификатор кодека: идентификатор кодека S_HDMV / PGS
ID / информация: формат субтитров на основе изображений, используемый на BD / HD-DVDs
Продолжительность: 58 мин 29 с
Скорость передачи: 32,3 кбит / с
Количество элементов: 1102
Размер потока: 13,5 Мибайт ( 0%)
Название: French-PGS
Язык: Французский
По умолчанию: No
Forced: No

Текст № 3
ID: 20
Формат: PGS
Режим мультиплексирования: zlib
Идентификатор кодека: S_HDMV / PGS Код кодекса /
информация: Формат субтитров на основе изображений, используемый на BD / HD-DVD
Длительность: 58 мин 29 с
Скорость передачи: 31,7 кбит / с
Количество элементов: 1104
Размер потока: 13.3 MiB (0%)
Название: Spanish-PGS
Язык: Испанский
По умолчанию: No
Forced: No

Text # 4
ID: 21
Формат: PGS
Режим мультиплексирования: zlib
Идентификатор кодека: S_HDMV / PGS Код кодекса /
информация: Формат субтитров на основе изображений, используемый на BD / HD-DVDs
Продолжительность: 58 мин 29 с
Скорость передачи: 31,9 кб / с
Количество элементов: 1104
Размер потока: 13,3 MiB (0%)
Название: Spanish-PGS
Язык: Испанский
По умолчанию: Нет
Принудительно: Нет

Текст № 5
ID: 22
Формат: PGS
Режим мультиплексирования: zlib
Идентификатор кодека: S_HDMV / PGS Код /
информация: Формат основанных на изображении основанных на BD / HD-DVD
Длительность: 58 мин 29 с
Скорость передачи: 37,0 кб / s
Количество элементов: 1102
Размер потока: 15,5 MiB (0%)
Название: German-PGS
Язык: немецкий
По умолчанию: No
Forced: No

Text # 6
ID: 23
Формат: PGS
Режим мультиплексирования: zlib
Идентификатор кодека: S_HDMV / PGS
Идентификатор кодека / информация: Формат субтитров на основе изображений, используемый на BD / HD-DVD
Длительность: 1 ч 0 мин
Скорость передачи: 32.9 kb / s
Количество элементов: 1296
Размер потока: 14,2 MiB (0%)
Название: Italian-PGS
Язык: итальянский
По умолчанию: No
Forced: No

Text # 7
ID: 24
Формат: PGS
Режим мультиплексирования: zlib
Идентификатор кодека: S_HDMV / PGS
Идентификатор кодека / Информация: Формат субтитров на основе изображений, используемый на BD / HD-DVD
Длительность: 58 мин 29 сек
Скорость передачи: 29,2 кбит / с
Количество элементов: 1102
Размер потока: 12,2 Мибайт (0%)
Название: Португальский-PGS
Язык: Португальский
По умолчанию: Нет
Принудительный: Нет

Текст # 8
ID: 25
Формат: PGS
Режим мультиплексирования: zlib
Идентификатор кодека: S_HDMV / PGS
Идентификатор кодека / информация: Формат субтитров на основе изображений, используемый на BD / HD-DVD
Длительность : 57 мин 13 с
Скорость передачи данных: 29,3 кбит / с
Количество элементов: 900
Размер потока: 12.0 MiB (0%)
Название: Czech-PGS
Язык: Чешский
По умолчанию: No
Forced: No

Text # 9
ID: 26
Формат: PGS
Режим мультиплексирования: zlib
Идентификатор кодека: S_HDMV / PGS
ID кодека / информация: субтитры на основе изображений формат, используемый на BD / HD-DVD
Длительность: 58 мин 20 с
Скорость передачи: 24,5 кбит / с
Количество элементов: 1068
Размер потока: 10,2 MiB (0%)
Название: Hungarian-PGS
Язык: Венгерский
По умолчанию: Нет
Принудительный: Нет

Текст # 10
ID: 27
Формат: PGS
Режим мультиплексирования: zlib
Код кодека: S_HDMV / PGS Код кодекса
/ Информация: Формат субтитров на основе изображений, используемый на BD / HD-DVD
Продолжительность: 58 мин 23 с
Битрейт: 24,7 kb / s
Количество элементов: 944
Размер потока: 10,3 MiB (0%)
Название: Polish-PGS
Язык: Польский
По умолчанию: Нет
Принудительный: Нет

Текст № 11
ID: 28
Формат: PGS
Режим мультиплексирования: zlib
ID кодека : S_HDMV / PGS
Codec ID / Info: формат субтитров на основе изображений, используемый на BD / HD-DVD
Продолжительность: 58 мин. 28 сек.
Скорость передачи: 24,1 кб / с.
Количество элементов: 1164.
Размер потока: 10,1 Мибайт (0%).
Название: Russian-PGS.
Язык: русский.
По умолчанию: нет.
Принудительно: нет.

Текст № 12
ID: 29
Формат: PGS
Режим мультиплексирования: zlib
Код кодекса: S_HDMV / PGS
Codec ID / Info: Формат субтитров на основе изображений, используемый на BD / HD-DVD
Длительность: 58 мин 29 с
Скорость передачи: 29,6 кбит / с
Количество элементов: 1076
Размер потока: 12,4 Мибайт (0%)
Название: Dutch-PGS
Язык: Dutch
По умолчанию: No
Forced: No

Text # 13
ID: 30
Формат: PGS
Режим мультиплексирования: zlib
Codec ID: S_HDMV / PGS
Codec ID / Info: Формат субтитров на основе изображений, используемый на BD / HD-DVDs
Продолжительность: 58 мин 29 с
Скорость передачи: 31,2 кбит / с
Количество элементов: 1102
Размер потока: 13,1 Мибайт (0%)
Название : Danish-PGS
Язык: Датский
По умолчанию: No
Forced: No

Text # 14
ID: 31
Формат: PGS
Режим мультиплексирования: zlib
Идентификатор кодека: идентификатор кодека S_HDMV / PGS
ID / информация: формат субтитров на основе изображений, используемый на BD / HD-DVD.
Продолжительность: 58 мин. 29 с.
Скорость передачи: 27,1 кбит / с.
Количество элементов: 1104.
Размер потока: 11,3 Мбайт ( 0%)
Название: Finnish-PGS
Язык: Финский
По умолчанию: No
Forced: No

Текст № 15
ID: 32
Формат: PGS
Режим мультиплексирования: zlib
Идентификатор кодека: S_HDMV / PGS
Codec ID / Info: Формат субтитров на основе изображений, используемый на BD / HD-DVDs
Продолжительность: 58 мин 29 с
Скорость передачи: 29,5 кбит / с
Количество элементов: 1104
Размер потока: 12.4 MiB (0%)
Название: Norwegian-PGS
Язык: Норвежский
По умолчанию: No
Forced: No

Text # 16
ID: 33
Формат: PGS
Режим мультиплексирования: zlib
Идентификатор кодека: S_HDMV / PGS
ID кодека / информация: Формат субтитров на основе изображений, используемый на BD / HD-DVD
Длительность: 58 мин 29 с
Скорость передачи: 29,3 кбит / с
Количество элементов: 1104
Размер потока: 12,3 MiB (0%)
Название: Swedish-PGS
Язык: шведский
По умолчанию: Нет
Forced: No

Text # 17
ID: 34
Формат: PGS
Режим мультиплексирования: zlib
Идентификатор кодека: S_HDMV / PGS
Идентификатор кодека / информация: Формат субтитров на основе изображений, используемый на BD / HD-DVD
Длительность: 57 мин 13 с
Скорость передачи: 22,8 кбит / s
Количество элементов: 766
Размер потока: 9.32 MiB (0%)
Название: Хорватский-PGS
Язык: Хорватский
По умолчанию: No
Forced: No

Text # 18
ID: 35
Формат: PGS
Режим мультиплексирования: zlib
Идентификатор кодека: S_HDMV / PGS
ID кодека / информация: Формат субтитров на основе изображений, используемый на BD / HD-DVD
Длительность: 59 мин 35 с
Скорость передачи: 28,1 kb / s
Количество элементов: 1118
Размер потока: 12,0 MiB (0%)
Название: Greek-PGS
Язык: Греческий
По умолчанию: Нет
Принудительный: Нет

Текст # 19
ID: 36
Формат: PGS
Режим мультиплексирования: zlib
Идентификатор кодека: S_HDMV / PGS
Идентификатор кодека / информация: Формат субтитров на основе изображений, используемый на BD / HD-DVD
Длительность: 58 мин 20 с
Битрейт: 15,9 kb / s
Количество элементов: 862
Размер потока: 6,65 MiB (0%)
Название: Hebrew-PGS
Язык: Hebrew
По умолчанию: No
Forced: No

Text # 20
ID: 37
Формат: PGS
Режим мультиплексирования: zlib
Идентификатор кодека: S_HDMV / PGS
Идентификатор кодека / информация: Формат субтитров на основе изображений, используемый на BD / HD-DVD
Длительность : 58 мин 28 с
Скорость передачи: 26,5 кбит / с
Количество элементов: 1022
Размер потока: 11.1 MiB (0%)
Название: Португальский-PGS
Язык: Португальский
По умолчанию: Нет
Принудительный: Нет

Текст # 21
ID: 38
Формат: PGS
Режим мультиплексирования: zlib
Идентификатор кодека: S_HDMV / PGS
ID кодека / информация: основанные на изображениях субтитры формат, используемый на BD / HD-DVD
Длительность: 57 мин 13 с
Скорость передачи: 24,4 кбит / с
Количество элементов: 1002
Размер потока: 9.99 MiB (0%)
Название: Romanian-PGS
Язык: румынский
По умолчанию: No
Forced: No

Text # 22
ID: 39
Формат: PGS
Режим мультиплексирования: zlib
Код кодека: S_HDMV / PGS Код кодекса
/ Информация: Формат субтитров на основе изображений, используемый на BD / HD-DVD.
Продолжительность: 57 мин. 14 сек.
Скорость передачи данных: 22,4 кбит / с
Количество элементов: 766
Поток Размер: 9,17 Мб (0%)
Название: словенской PGS
Язык: Словенский По
умолчанию: Нет
Forced: Нет

Текст # 23
ID: 40
Формат: PGS
Режим мультеплексировать: Zlib
Codec ID : S_HDMV / PGS
Codec ID / Info: формат субтитров на основе изображений, используемый на BD / HD-DVD
Продолжительность: 58 мин 29 с
Скорость передачи данных: 25,8 кбит / с
Количество элементов: 1104
Размер потока: 10,8 Мибайт (0%)
Название: Турецкий-PGS
Язык: Турецкий
По умолчанию: Нет
Принудительный: Нет

Текст № 24
ID: 41
Формат: PGS
Режим мультиплексирования: zlib
Код кодекса: S_HDMV / PGS
Codec ID / Info: Формат субтитров на основе изображений, используемый на BD / HD-DVD
Длительность: 58 мин 29 с
Скорость передачи: 19,8 кбит / с
Количество элементов: 1128
Размер потока: 8,30 Мибайт (0%)
Название: Китайско-PGS
Язык: Китайский
По умолчанию: No
Forced: No

Text # 25
ID: 42
Формат: PGS
Режим Muxing: zlib
Codec ID: S_HDMV / PGS
Codec ID / Информация: Формат субтитров на основе изображений, используемый на BD / HD-DVD
Длительность: 57 мин 13 с
Скорость передачи: 16,2 кбит / с
Количество элементов: 1056
Размер потока: 6,63 Мибайт (0%)
Название : Korean-PGS
Язык: Korean
По умолчанию: No
Forced: No

Text # 26
ID: 43
Формат: PGS
Режим мультиплексирования: zlib
Идентификатор кодека: S_HDMV / PGS
ID кодека / информация: формат субтитров на основе изображений, используемый на BD / HD-DVD
Длительность: 58 мин 29 с
Скорость передачи: 20,1 кбит / с
Количество элементов: 1106
Размер потока: 8,42 МиБ ( 0%)
Название: Thai-PGS
Язык: тайский
По умолчанию: No
Forced: Нет

Меню
00: 00: 00.000: ru: Глава 1
00: 00: 08.008: ru: глава 2
00: 07: 18.438: ru: глава 3
00: 08: 58.538: ru: глава 4
00: 18: 16.512: ru: глава 5
00: 28: 48.560: ru: глава 6
00: 39: 37.583: ru: глава 7
00: 50: 02.040: ru: глава 8
01: 00: 34.631: ru: глава 9



Скачать Игра престолов через торрент https://b.radikal.ru/b39/1806/e9/e8720cb63c31.png Скачать, смотреть онлайн Игра престолов бесплантно в хорошем качестве Описание: К концу подходит время благоденствия, и лето, длившееся почти десятилетие, угасает. Вокруг средоточия власти Семи королевств, ... 10 10 2
Info! Золотая раздача, скачанное не засчитывается.
Торрент: Зарегистрирован [2018-06-05 17:26] · скачан: 6 раз
Статус: √ проверено
Размер: 295.96 GB
Как cкачать? Как скачать Игра престолов через торрент | UTorrent

% Раздел Тема Автор DL S | L
Игра престолов [ 109.58 GB ] Игра престолов / Game of Thrones / Сезон: 1-8 из 8 / Серии: 1-73 из 73 | DUB | DLRip 1080p sheker187 Скачать
1 | 3
Игра престолов [ 322.59 GB ] Игра престолов / Game of Thrones / Сезон: 1-8 из 8 / Серии: 1-73 из 73 | LostFilm | DLRip 1080p sheker187 Скачать
4 | 4
Игра престолов [ 164.97 GB ] Игра престолов / Game of Thrones / Сезон 1 / Серии 10 из 10 | DUB | 2160p sheker187 Скачать
1 | 0
Игра престолов [ 297.23 GB ] Игра престолов / Game of Thrones / Сезон: 1-7 из 7 / Серии: 1-67 из 67 | LostFilm | 1080p sheker187 Скачать
1 | 0
Игра престолов [ 23.95 GB ] Игра престолов / Game of Thrones / Сезон: 8 / Серии: 1-6 из 6 | Amedia | 1080p bober100 Скачать
1 | 0
Игра престолов [ 5.06 GB ] Игра престолов / Game of Thrones / Сезон: 8 / Серии: 1-6 из 6 | Amedia | DLRip bober100 Скачать
1 | 0
Игра престолов [ 23.95 GB ] Игра престолов / Game of Thrones / Сезон: 8 / Серии: 1-6 из 6 | MVO | 1080p bober100 Скачать
1 | 0

28-11-2019 20:33  

Отключить вcю реклaмy на сайте

06-06-2018 15:11 Игра престолов Скачать торрент  

скажите пожалуйста а еще будут сезоны такие же?!
если сезон 300гб - стоит еще искать гдето 2 Тб места на все или нет



15-04-2021 06:29 Игра престолов Скачать торрент  

здравствуйте, подскажите почему скорость скачивания такая низкая? всегда качал 5-6 мб сек, а сейчас уже какой торрент скачиваю 1-2 мб и то еле как? очень хочу игру престолов в 4к



    Дорогой пользователь! Огромная просьба, поблагодарите релизера, оцените раздачу и оставьте свои комментарий, если Вы скачали Игра престолов через торрент бесплатно!!
    Комментировать посты могут только пользователи прошедшие не сложную регистрацию
    Показать сообщения:    


    Игра престолов через торрент
    Скачать бесплатно Игра престолов
    Игра престолов скачать торрент
    Игра престолов смотреть онлайн
    Cкачать фильм Игра престолов бесплатно
    Игра престолов скачать торрент в хорошем качестве
    Игра престолов смотреть онлайн бесплатно в хорошем качестве
    Вы не можете начинать темы
    Вы не можете отвечать на сообщения
    Вы не можете редактировать свои сообщения
    Вы не можете удалять свои сообщения
    Вы не можете голосовать в опросах
    Вы не можете прикреплять файлы к сообщениям
    Вы можете скачивать файлы