Достать ножи: Стеклянная луковица

MVO

Добыча

Дубляж

Уэнсдэй

1 сезон

Тор

Дубляж

13 клиническая

1 сезон

Жестокая ночь

MVO

Одни из нас

1 сезон

Deluxe

pack

Рекомендуем

30

Пиратка

ВАЖНО

ВАЖНО

Ghostwire

Пиратка

jed

RePack

nioh2

RePack

RDR2

RePack

NEED FOR SPEED™ PAYBACK

RePack

скачать торрент

Кинопоиск HD

Острые козырьки 6 сезон

6 сезон

FAR CRY 6

RePack

скачать торрент

Лицензия

скачать торрент

MVO

1

1 сезон

скачать торрент

1 сезон

скачать торрент

Лицензия

  

Разлом Сан-Андреас / San Andreas (Брэд Пейтон) [2015, боевик, триллер, драма, UHD BDRemux 2160p] Дубляж (rus, ukr) + AVO [А. Гаврилов]

Разлом Сан-Андреас через торрент piratbit.org

Размер: 55.75 GB | Добавлен: 4 года 7 мес. назад | Торрент скачан:41 раз
Смотреть онлайн | Скачать | Поддержите нас   

06-06-2018 18:09 Разлом Сан-Андреас Скачать торрент  

Разлом Сан-Андреас / San Andreas«A rescue pilot survived an earthquake, this is what happens next»
Год выпуска: 2015
Страна: США
Жанр: боевик, триллер, драма, приключения
Продолжительность: 01:54:28
Перевод: Дублированный, Авторский (одноголосый, закадровый) (А. Гаврилов)
Субтитры: Английские, Русские (Full-length, Forced), Украинские (Forced)
Режиссер: Брэд Пейтон
В ролях:

Дуэйн Джонсон, Карла Гуджино, Александра Даддарио, Йоан Гриффит, Арчи Панджаби, Пол Джаматти, Хьюго Джонстон-Барт, Арт Паркинсон, Уилл Юн Ли (Dr. Kim Park), Кайли Миноуг, Колтон Хэйнс, Тодд Уильямс
Описание:
Рэй - пилот спасательного вертолета, который всю свою жизнь помогал другим людям. За все время работы он насмотрелся на множество жутких вещей и не раз оказывался в очень сложных ситуациях. Несмотря на все преграды он спешил на помощь, даже не предполагая, что самое страшное ждет его впереди.
Рейтинг:

MPAA: PG-13 - Детям до 13 лет просмотр не желателен

Качество: UHD BDRemux 2160p
Формат: MKV
Видео: HEVC, HDR, 54.0 Мбит/с, 3840x2160
Аудио: DTS-HD MA, 6 ch, 4306 kbps - Русский, Дубляж
Аудио: AC3, 6 ch, 384 kbps - Украинский, Дубляж
Аудио: DTS-HD MA, 8 ch, 5534 kbps - Русский, А. Гаврилов
Аудио: TrueHD-Atmos, 8 ch, 5240 kbps - Английский
Навигация по главам: есть
General
Unique ID : 243874922810496752392353326291180633962 (0xB7789A05E7650B9185D9F3D692C0BF6A)
Complete name : SAN_ANDREAS_BD_UHD_HDR_REMUX-BLUEBIRD.mkv
Format : Matroska
Format version : Version 4 / Version 2
File size : 55.7 GiB
Duration : 1 h 56 min
Overall bit rate mode : Variable
Overall bit rate : 68.5 Mb/s
Movie name : SAN_ANDREAS_BD_UHD_HDR_REMUX-BLUEBIRD
Encoded date : UTC 2017-11-08 23:37:12
Writing application : mkvmerge v16.0.0 ('Protest') 64-bit
Writing library : libebml v1.3.5 + libmatroska v1.4.8
Cover : Yes
Attachments : cover.png

Video
ID : 1
Format : HEVC
Format/Info : High Efficiency Video Coding
Format profile : Main 10@L5.1@High
Codec ID : V_MPEGH/ISO/HEVC
Duration : 1 h 54 min
Bit rate : 54.0 Mb/s
Width : 3 840 pixels
Height : 2 160 pixels
Display aspect ratio : 16:9
Frame rate mode : Constant
Frame rate : 23.976 (24000/1001) FPS
Color space : YUV
Chroma subsampling : 4:2:0 (Type 2)
Bit depth : 10 bits
Bits/(Pixel*Frame) : 0.272
Stream size : 43.2 GiB (77%)
Title : SAN_ANDREAS_BD_UHD_HDR_REMUX-BLUEBIRD
Writing library : ATEME Titan KFE 3.7.3 (4.7.3.1001)
Default : Yes
Forced : No
Color range : Limited
Color primaries : BT.2020
Transfer characteristics : SMPTE ST 2084
Matrix coefficients : BT.2020 non-constant
Mastering display color primaries : R: x=0.680000 y=0.320000, G: x=0.265000 y=0.690000, B: x=0.150000 y=0.060000, White point: x=0.312700 y=0.329000
Mastering display luminance : min: 0.0050 cd/m2, max: 4000.0000 cd/m2

Audio #1
ID : 2
Format : DTS
Format/Info : Digital Theater Systems
Format profile : MA / Core
Mode : 16
Format settings, Endianness : Big
Codec ID : A_DTS
Duration : 1 h 54 min
Bit rate mode : Variable / Constant
Bit rate : 4 306 kb/s / 1 509 kb/s
Channel(s) : 6 channels
Channel positions : Front: L C R, Side: L R, LFE
Sampling rate : 48.0 kHz
Frame rate : 93.750 FPS (512 SPF)
Bit depth : 24 bits
Compression mode : Lossless / Lossy
Stream size : 3.44 GiB (6%)
Title : [Дубляж] DTS-HD MA 5.1 @ 4307 kbps
Language : Russian
Default : Yes
Forced : No

Audio #2
ID : 3
Format : AC-3
Format/Info : Audio Coding 3
Format settings, Endianness : Big
Codec ID : A_AC3
Duration : 1 h 54 min
Bit rate mode : Constant
Bit rate : 384 kb/s
Channel(s) : 6 channels
Channel positions : Front: L C R, Side: L R, LFE
Sampling rate : 48.0 kHz
Frame rate : 31.250 FPS (1536 SPF)
Bit depth : 16 bits
Compression mode : Lossy
Stream size : 314 MiB (1%)
Title : [Дубляж] DD 5.1 @ 384 kbps
Language : Ukrainian
Service kind : Complete Main
Default : No
Forced : No

Audio #3
ID : 4
Format : DTS
Format/Info : Digital Theater Systems
Format profile : MA / Core
Mode : 16
Format settings, Endianness : Big
Codec ID : A_DTS
Duration : 1 h 56 min
Bit rate mode : Variable / Constant
Bit rate : 5 534 kb/s / 1 509 kb/s
Channel(s) : 8 channels / 6 channels
Channel positions : Front: L C R, Side: L R, Back: L R, LFE / Front: L C R, Side: L R, LFE
Sampling rate : 48.0 kHz
Frame rate : 93.750 FPS (512 SPF)
Bit depth : 24 bits
Compression mode : Lossless / Lossy
Stream size : 4.50 GiB (8%)
Title : [VO] DTS-HD MA 7.1 @ 5535 kbps (A. Gavrilov)
Language : Russian
Default : No
Forced : No

Audio #4
ID : 5
Format : TrueHD
Format profile : TrueHD+Atmos / TrueHD
Codec ID : A_TRUEHD
Duration : 1 h 54 min
Bit rate mode : Variable
Bit rate : 5 240 kb/s
Maximum bit rate : 8 760 kb/s
Channel(s) : Object Based / 8 channels
Channel positions : Object Based / Front: L C R, Side: L R, Back: L R, LFE
Sampling rate : / 48.0 kHz
Frame rate : 1 200.000 FPS (40 SPF)
Compression mode : Lossless
Stream size : 4.19 GiB (8%)
Title : [ORIGINAL] ATMOS 7.1 @ 5557 kbps
Language : English
Default : No
Forced : No

Text #1
ID : 6
Format : PGS
Codec ID : S_HDMV/PGS
Codec ID/Info : Picture based subtitle format used on BDs/HD-DVDs
Duration : 1 h 53 min
Bit rate : 34.7 kb/s
Count of elements : 2536
Stream size : 28.1 MiB (0%)
Title : Full-length
Language : Russian
Default : No
Forced : No

Text #2
ID : 7
Format : PGS
Codec ID : S_HDMV/PGS
Codec ID/Info : Picture based subtitle format used on BDs/HD-DVDs
Duration : 1 h 52 min
Bit rate : 27.3 kb/s
Count of elements : 2978
Stream size : 22.1 MiB (0%)
Title : Full-length
Language : English
Default : No
Forced : No

Text #3
ID : 8
Format : PGS
Codec ID : S_HDMV/PGS
Codec ID/Info : Picture based subtitle format used on BDs/HD-DVDs
Duration : 1 h 53 min
Bit rate : 905 b/s
Count of elements : 58
Stream size : 750 KiB (0%)
Title : Forced
Language : Russian
Default : Yes
Forced : Yes

Text #4
ID : 9
Format : PGS
Codec ID : S_HDMV/PGS
Codec ID/Info : Picture based subtitle format used on BDs/HD-DVDs
Duration : 1 h 43 min
Bit rate : 900 b/s
Count of elements : 56
Stream size : 685 KiB (0%)
Title : Forced
Language : Ukrainian
Default : No
Forced : No

Menu
00:00:00.000 : en:Chapter 1
00:09:29.944 : en:Chapter 2
00:18:47.209 : en:Chapter 3
00:30:10.099 : en:Chapter 4
00:40:08.823 : en:Chapter 5
00:50:18.098 : en:Chapter 6
00:59:44.497 : en:Chapter 7
01:11:27.366 : en:Chapter 8
01:19:43.612 : en:Chapter 9
01:30:40.810 : en:Chapter 10
01:39:56.490 : en:Chapter 11
01:47:10.924 : en:Chapter 12



Скачать Разлом Сан-Андреас через торрент https://b.radikal.ru/b05/1806/12/09873322070b.png Скачать, смотреть онлайн Разлом Сан-Андреас бесплантно в хорошем качестве Описание: Рэй - пилот спасательного вертолета, который всю свою жизнь помогал другим людям. За все время работы он насмотрелся на множество ... 9.7 10 3
Info! Золотая раздача, скачанное не засчитывается.
Торрент: Зарегистрирован [2018-06-06 18:09] · скачан: 41 раз
Статус: √ проверено
Размер: 55.75 GB
Как cкачать? Как скачать Разлом Сан-Андреас через торрент | UTorrent

28-11-2019 20:33  


Отключить вcю реклaмy на сайте, в т.ч. и в плеере онлайн просмотра!

    Дорогой пользователь! Огромная просьба, поблагодарите релизера, оцените раздачу и оставьте свои комментарий, если Вы скачали Разлом Сан-Андреас через торрент бесплатно!!
    Комментировать посты могут только пользователи прошедшие не сложную регистрацию
    Показать сообщения:    


    Разлом Сан-Андреас через торрент
    Скачать бесплатно Разлом Сан-Андреас
    Разлом Сан-Андреас скачать торрент
    Разлом Сан-Андреас смотреть онлайн
    Cкачать фильм Разлом Сан-Андреас бесплатно
    Разлом Сан-Андреас скачать торрент в хорошем качестве
    Разлом Сан-Андреас смотреть онлайн бесплатно в хорошем качестве
    Вы не можете начинать темы
    Вы не можете отвечать на сообщения
    Вы не можете редактировать свои сообщения
    Вы не можете удалять свои сообщения
    Вы не можете голосовать в опросах
    Вы не можете прикреплять файлы к сообщениям
    Вы можете скачивать файлы
    Разлом Сан-Андреас / San Andreas [2015, боевик, триллер, драма, UHD BDRemux 2160p] Дубляж + AVO [А. Гаврилов] смотреть онлайн, скачать торрент picoco.icu