Лицензия

MVO

1

1 сезон

Лицензия

Лицензия

13

MVO

1 сезон

Deluxe Edition

pack

Рекомендуем

30

Repack

ВАЖНО

ВАЖНО

Ghostwire

RePack

jed

RePack

fifa19

RePack

RDR2

RePack

NEED FOR SPEED™ PAYBACK

RePack

Кинопоиск HD

 Острые козырьки 6 сезон

6 сезон

FAR CRY 6

RePack

Лицензия

MVO

1

1 сезон

1 сезон

Лицензия

  

Чудотворная (Владимир Скуйбин) [1960, СССР, драма, SATRip от AVP Studio]

Чудотворная через торрент piratbit.org

Размер: 1.09 GB | Добавлен: 4 года 3 мес. назад | Торрент скачан:11 раз
Смотреть онлайн Чудотворная | Скачать   

07-06-2018 07:53 Чудотворная Скачать торрент  

Чудотворная
Страна: СССР
Производство: Мосфильм

Жанр: драма
Год выпуска: 1960
Продолжительность: 01:15:28

Перевод: Не требуется
Cубтитры: нет
Оригинальная аудиодорожка: русский

Режиссер: Владимир Скуйбин

В ролях:
Владимир Васильев (Х), Нина Меньшикова, Антонина Павлычева, Клавдия Половикова, Владимир Покровский, Пётр Савин, Иван Рыжов, Валерий Коротков, Саша Крылов (III), Станислав Чекан, Елена Максимова, Вера Бурлакова...
Об актёрах подробней

Описание:
Ученик Гумнищенской сельской школы Родька Гуляев выкапывает на берегу реки древнюю потемневшую икону, а его бабка Авдотья распускает слух, что эта икона - чудотворная, а ее внук Родька - святой. Бабка и мать стали силой "обращать его в христианскую веру". Мальчика заставляли носить крест, молиться. Родька протестовал, стыдился товарищей. Доведенный до отчаяния, он решил уничтожить икону, но был застигнут "на месте преступления" бабкой. Беспощадно избитый, не видя выхода, он бросился в реку, но учительнице Прасковье Петровне удалось его спасти.

Исходник: DVB
Качество видео: SATRip
Формат видео: AVI

Видео: 688x512 (4:3), 25,000 кадров/сек, XviD ~ 1865 kbps avg, 0.212 bit/pixel
Аудио: 48 kHz, Dolby Digital AC3 2.0, 192 kbps

Раздача от:
Общее
Полное имя : Chudotvornaya.1960.SATRip_[New-team]_by_AVP_Studio.avi
Формат : AVI
Формат/Информация : Audio Video Interleave
Размер файла : 1,09 Гбайт
Продолжительность : 1 ч. 15 м.
Общий поток : 2066 Кбит/сек
Программа кодирования : VirtualDubMod 1.5.10.3 | www.virtualdub-fr.org || (build 2550/release)
Библиотека кодирования : VirtualDubMod build 2550/release

Видео
Идентификатор : 0
Формат : MPEG-4 Visual
Профиль формата : Advanced Simple@L5
Настройки формата : BVOP1 / Custom Matrix
Параметр BVOP формата : 1
Параметр QPel формата : Нет
Параметр GMC формата : Без точки перехода
Параметр матрицы формата : Выборочная
Идентификатор кодека : XVID
Идентификатор кодека/Подсказка : XviD
Продолжительность : 1 ч. 15 м.
Битрейт : 1865 Кбит/сек
Ширина : 688 пикселей
Высота : 512 пикселей
Соотношение сторон : 4:3
Частота кадров : 25,000 кадров/сек
Цветовое пространство : YUV
Субдискретизация насыщенности : 4:2:0
Битовая глубина : 8 бит
Тип развёртки : Прогрессивная
Метод сжатия : С потерями
Бит/(Пиксели*Кадры) : 0.212
Размер потока : 1006 Мбайт (90%)
Библиотека кодирования : XviD 73

Аудио
Идентификатор : 1
Формат : AC-3
Формат/Информация : Audio Coding 3
Идентификатор кодека : 2000
Продолжительность : 1 ч. 15 м.
Вид битрейта : Постоянный
Битрейт : 192 Кбит/сек
Каналы : 2 канала
Расположение каналов : Front: L R
Частота : 48,0 КГц
Частота кадров : 31,250 кадров/сек (1536 SPF)
Битовая глубина : 16 бит
Метод сжатия : С потерями
Размер потока : 104 Мбайт (9%)
Выравнивание : Разделение по промежуткам
Продолжительность промежутка : 40 мс. (1,00 видеокадр)
Время предзагрузки промежутка : 500 мс



Скачать Чудотворная через торрент http://picplus.ru/img/1806/07/6bfe369e.png Скачать, смотреть онлайн Чудотворная бесплантно в хорошем качестве Описание:Ученик Гумнищенской сельской школы Родька Гуляев выкапывает на берегу реки древнюю потемневшую икону, а его бабка Авдотья ... 5 10 1
Info! Золотая раздача, скачанное не засчитывается.
Торрент: Зарегистрирован [2018-06-07 07:53] · скачан: 11 раз
Статус: √ проверено
Размер: 1.09 GB
Как cкачать? Как скачать Чудотворная через торрент | UTorrent

% Раздел Тема Автор DL S | L
Кино СССР [ 1.09 GB ] Чудотворная | | SATRip-AVC от AVP Studio AVP Studio Скачать
1 | 0

28-11-2019 20:33  

Отключить вcю реклaмy на сайте

    Дорогой пользователь! Огромная просьба, поблагодарите релизера, оцените раздачу и оставьте свои комментарий, если Вы скачали Чудотворная через торрент бесплатно!!
    Комментировать посты могут только пользователи прошедшие не сложную регистрацию
    Показать сообщения:    


    Чудотворная через торрент
    Скачать бесплатно Чудотворная
    Чудотворная скачать торрент
    Чудотворная смотреть онлайн
    Cкачать фильм Чудотворная бесплатно
    Чудотворная скачать торрент в хорошем качестве
    Чудотворная смотреть онлайн бесплатно в хорошем качестве
    Вы не можете начинать темы
    Вы не можете отвечать на сообщения
    Вы не можете редактировать свои сообщения
    Вы не можете удалять свои сообщения
    Вы не можете голосовать в опросах
    Вы не можете прикреплять файлы к сообщениям
    Вы можете скачивать файлы