1 сезон

3 сезон

iTunes

1

iTunes

DUB Netflix

iTunes

13

1 сезон

RePack

30

Deluxe

pack

Легкие деньги

ВАЖНО

ИГРА 18+

pack

RePack

MK11

RePack

jed

RePack

fifa19

RePack

RDR2

RePack

NEED FOR SPEED™ PAYBACK

4 сезон

9 сезон

Бесстыжие 9 сезон

Все сериалы

все сериалы на PB.wtf

RePack

FAR CRY 5

Anonymous, добрый вечер, мы не успеваем до 1 числа собрать деньги на оплату серверов, помогите нам пожалуйста в это трудное время. В качестве благодарности мы отключим Вам всю рекламу на сайте (укажите свой ник в строку Ваше имя)!

×
  
Magnet ссылка

Улица / Сезон: 2 / Серии: 1-34 из 34 (Жанна Кадникова, Николай Бурлак, Михаил Соловьёв) [2018, Драма, комедия, мелодрама, триллер, HDTV 1080i] piratbit.org

Улица через торрент piratbit.org

Размер: 42.61 GB | Добавлен: 3 года назад | Торрент скачан:67 раз
Скачать  

08-06-2018 19:40 Улица Скачать торрент  

Улица
Год выпуска: 2018
Страна: Россия
Жанр: Драма, комедия, мелодрама, триллер
Продолжительность: ~ 00:24:00
Субтитры: отсутствуют

Режиссер: Жанна Кадникова, Николай Бурлак, Михаил Соловьёв



В ролях:

Егор Клинаев, Ольга (Лёля) Баранова, Владимир Хацкевич, Екатерина Седик, Павел Савинков, Сергей Змичеревский, Артемий Падалка, Марина Богатова, Ксения Жданова, Марта Дромашко, Александр Терехов

Описание:

«Улица» — это история жителей одной из улиц спального района большого города. Школьники и студенты, домохозяйки и продавцы, олигархи и простые рабочие — здесь встретятся более 30 персонажей разного возраста и социального статуса, у каждого из них своя история. В большой Вселенной «Улицы» нет главных и второстепенных героев, здесь есть бурная жизнь с ее радостями, горестями, казусами и косяками, страхами, любовными переживаниями и трагедиями. Это история про всех нас и наших соседей.

Качество: HDTV 1080i
Формат: MPEG-TS

Видео: 1920х1080 (16:9), 25 fps, AVC MPEG-4 (x264), High@L4.0 ~ 7800 kbps avg, 0.121 bit/pixel
Аудио: 48 kHz, MPEG Layer 2, 2 ch, ~ 192 kbps avg
скриншот   скриншот   скриншот   скриншот  

Общее
Идентификатор : 1 (0x1)
Полное имя : F:\Ulica.S.02.2018.HDTV.(1080i).Nikolspup\Ulica.S.02.(01.seriya).2018.HDTV.(1080i).Nikolspup.ts
Формат : MPEG-TS
Размер файла : 1,35 Гбайт
Продолжительность : 23 м. 6 с.
Режим общего битрейта : Переменный
Общий поток : 8349 Кбит/сек

Видео
Идентификатор : 256 (0x100)
Идентификатор меню : 1 (0x1)
Формат : AVC
Формат/Информация : Advanced Video Codec
Профиль формата : High@L4.1
Параметр CABAC формата : Да
Параметр RefFrames формата : 3 кадра
Идентификатор кодека : 27
Продолжительность : 23 м. 6 с.
Вид битрейта : Постоянный
Битрейт : 7867 Кбит/сек
Ширина : 1920 пикселей
Высота : 1080 пикселей
Соотношение сторон : 16:9
Частота кадров : 25,000 кадров/сек
Стандарт вещания : PAL
Цветовое пространство : YUV
Субдискретизация насыщенности : 4:2:0
Битовая глубина : 8 бит
Тип развёртки : Прогрессивная
Бит/(Пиксели*Кадры) : 0.152
Размер потока : 1,25 Гбайт (93%)
Цветовой диапазон : Limited
Основные цвета : BT.709
Характеристики трансфера : BT.709
Коэффициенты матрицы : BT.709

Аудио
Идентификатор : 257 (0x101)
Идентификатор меню : 1 (0x1)
Формат : MPEG Audio
Версия формата : Version 1
Профиль формата : Layer 2
Идентификатор кодека : 3
Продолжительность : 23 м. 6 с.
Вид битрейта : Постоянный
Битрейт : 192 Кбит/сек
Каналы : 2 канала
Частота : 48,0 КГц
Метод сжатия : С потерями
Размер потока : 31,7 Мбайт (2%)
Язык : English

piratbit.org



Скачать Улица через торрент https://pic1.kartinco.top/images/11/fjdza.jpg Скачать фильм Улица через торрент бесплантно в хорошем качестве Описание: «Улица» — это история жителей одной из улиц спального района большого города. Школьники и студенты, домохозяйки и продавцы, ... 9.7 10 3
Info! Золотая раздача, скачанное не засчитывается.
Торрент: Зарегистрирован [2018-06-08 19:40] · скачан: 67 раз
Статус: √ проверено
Размер: 42.61 GB
Как cкачать? Как скачать Улица через торрент | UTorrent

% Раздел Тема Автор DL S | L
TNT serials [ 9.25 GB ] Улица / Сезон: 2 / Серии: 1-34 из 34 [2018 HDTVRip] bober100 Скачать
1 | 0
TNT serials [ 21.95 GB ] Улица / Сезон: 2 / Серии: 1-34 из 34 [2018 HDTVRip 720p] bober100 Скачать
1 | 0
TNT serials [ 11.5 GB ] Улица / Сезон: 2 / Серии: 1-34 из 34 [2018 HDTVRip-AVC] bober100 Скачать
1 | 0
TNT serials [ 9.76 GB ] Улица / Сезон: 2 / Серии: 1-34 из 34 [2018 SATRip] bober100 Скачать
1 | 0

28-11-2019 20:33  

Отключить всю рекламу на сайте

    Дорогой пользователь! Огромная просьба, поблагодарите релизера, оцените раздачу и оставьте свои комментарий, если Вы скачали Улица через торрент бесплатно! Внесите свою лепту в развитие PiratBit!
    Комментировать посты могут только пользователи прошедшие не сложную регистрацию
    Показать сообщения:    

    Улица через торрент
    Скачать бесплатно Улица
    Улица скачать торрент
    Улица смотреть онлайн
    Cкачать фильм Улица бесплатно
    Улица скачать торрент в хорошем качестве
    Улица смотреть онлайн бесплатно в хорошем качестве


    Вы не можете начинать темы
    Вы не можете отвечать на сообщения
    Вы не можете редактировать свои сообщения
    Вы не можете удалять свои сообщения
    Вы не можете голосовать в опросах
    Вы не можете прикреплять файлы к сообщениям
    Вы можете скачивать файлы