Доктор Стрэндж

Лицензия

Добыча

MVO

Дом дракона

1 сезон

Тор

Лицензия

Мэверик

Лицензия

Там, где раки поют

MVO

Властелин колец

1 сезон

Ultimate

pack

Рекомендуем

30

Repack

ВАЖНО

ВАЖНО

Ghostwire

RePack

jed

RePack

nioh2

RePack

RDR2

RePack

NEED FOR SPEED™ PAYBACK

RePack

скачать торрент

Кинопоиск HD

Острые козырьки 6 сезон

6 сезон

FAR CRY 6

RePack

скачать торрент

Лицензия

скачать торрент

MVO

1

1 сезон

скачать торрент

1 сезон

скачать торрент

Лицензия

  

Хлеб и розы (Федор Филиппов) [1960, СССР, драма, SATRip от AVP Studio]

Хлеб и розы через торрент piratbit.org

Размер: 1.09 GB | Добавлен: 4 года 3 мес. назад | Торрент скачан:23 раза
Смотреть онлайн Хлеб и розы | Скачать   

09-06-2018 09:05 Хлеб и розы Скачать торрент  

Хлеб и розы
Страна: СССР
Производство: Мосфильм

Жанр: драма
Год выпуска: 1960
Продолжительность: 01:30:56

Перевод: Не требуется
Cубтитры: нет
Оригинальная аудиодорожка: русский

Режиссер: Федор Филиппов

В ролях:
Павел Кадочников, Людмила Касаткина, Александра Завьялова, Сергей Калинин, Анатолий Соловьёв, Анатолий Кубацкий, Глеб Глебов, Эдуард Бредун, Леонид Пархоменко, Павел Волков, Александра Данилова, Инна Фёдорова, Клавдия Хабарова, Раднэр Муратов, Сергей Юртайкин, Юрий Дубровин, Е. Кушнерайт...
Об актёрах подробней

Описание:
По одноименной пьесе А.Салынского.
Молодой питерский рабочий Гавриил Ивушкин (Павел Кадочников) отправился со своими товарищами в алтайскую степь строить коммуну. Там горожане показали беднякам, как надо работать. Холод и голод, борьба с контрреволюцией - все выдержал Гавриил Ивушкин. Но скрыть своего чувства к красавице Любаше Тиуновой (Александра Завьялова), дочери местного кулака, не смог. Любаша тоже полюбила Ивушкина, но многое в нем было для нее новым и непонятным. Их пути разойдутся, но придет время и Любаша все бросит ради того, чтобы быть рядом с Гавриилом.

Исходник: DVB
Качество видео: SATRip
Формат видео: AVI

Видео: 704x400 (16:9), 25,000 кадров/сек, XviD ~ 1514 kbps avg, 0.215 bit/pixel
Аудио: 48 kHz, Dolby Digital AC3 2.0, 192 kbps

Раздача от:
Общее
Полное имя : Hleb.i.rozy.1960.SATRip_[New-team]_by_AVP_Studio.avi
Формат : AVI
Формат/Информация : Audio Video Interleave
Размер файла : 1,09 Гбайт
Продолжительность : 1 ч. 30 м.
Общий поток : 1716 Кбит/сек
Программа кодирования : VirtualDubMod 1.5.10.3 | www.virtualdub-fr.org || (build 2550/release)
Библиотека кодирования : VirtualDubMod build 2550/release

Видео
Идентификатор : 0
Формат : MPEG-4 Visual
Профиль формата : Advanced Simple@L5
Настройки формата : BVOP1 / Custom Matrix
Параметр BVOP формата : 1
Параметр QPel формата : Нет
Параметр GMC формата : Без точки перехода
Параметр матрицы формата : Выборочная
Идентификатор кодека : XVID
Идентификатор кодека/Подсказка : XviD
Продолжительность : 1 ч. 30 м.
Битрейт : 1514 Кбит/сек
Ширина : 704 пикселя
Высота : 400 пикселей
Соотношение сторон : 16:9
Частота кадров : 25,000 кадров/сек
Цветовое пространство : YUV
Субдискретизация насыщенности : 4:2:0
Битовая глубина : 8 бит
Тип развёртки : Прогрессивная
Метод сжатия : С потерями
Бит/(Пиксели*Кадры) : 0.215
Размер потока : 985 Мбайт (88%)
Библиотека кодирования : XviD 73

Аудио
Идентификатор : 1
Формат : AC-3
Формат/Информация : Audio Coding 3
Идентификатор кодека : 2000
Продолжительность : 1 ч. 30 м.
Вид битрейта : Постоянный
Битрейт : 192 Кбит/сек
Каналы : 2 канала
Расположение каналов : Front: L R
Частота : 48,0 КГц
Частота кадров : 31,250 кадров/сек (1536 SPF)
Битовая глубина : 16 бит
Метод сжатия : С потерями
Размер потока : 125 Мбайт (11%)
Выравнивание : Разделение по промежуткам
Продолжительность промежутка : 40 мс. (1,00 видеокадр)
Время предзагрузки промежутка : 500 мс



Скачать Хлеб и розы через торрент http://picplus.ru/img/1806/09/a723c4e2.png Скачать, смотреть онлайн Хлеб и розы бесплантно в хорошем качестве Описание:По одноименной пьесе А.Салынского.Молодой питерский рабочий Гавриил Ивушкин (Павел Кадочников) отправился со своими товарищами в ... 5 10 1
Info! Золотая раздача, скачанное не засчитывается.
Торрент: Зарегистрирован [2018-06-09 09:05] · скачан: 23 раз
Статус: √ проверено
Размер: 1.09 GB
Как cкачать? Как скачать Хлеб и розы через торрент | UTorrent

% Раздел Тема Автор DL S | L
Кино СССР [ 1.09 GB ] Хлеб и розы | | SATRip-AVC от AVP Studio AVP Studio Скачать
1 | 0

28-11-2019 20:33  

Отключить вcю реклaмy на сайте

    Дорогой пользователь! Огромная просьба, поблагодарите релизера, оцените раздачу и оставьте свои комментарий, если Вы скачали Хлеб и розы через торрент бесплатно!!
    Комментировать посты могут только пользователи прошедшие не сложную регистрацию
    Показать сообщения:    


    Хлеб и розы через торрент
    Скачать бесплатно Хлеб и розы
    Хлеб и розы скачать торрент
    Хлеб и розы смотреть онлайн
    Cкачать фильм Хлеб и розы бесплатно
    Хлеб и розы скачать торрент в хорошем качестве
    Хлеб и розы смотреть онлайн бесплатно в хорошем качестве
    Вы не можете начинать темы
    Вы не можете отвечать на сообщения
    Вы не можете редактировать свои сообщения
    Вы не можете удалять свои сообщения
    Вы не можете голосовать в опросах
    Вы не можете прикреплять файлы к сообщениям
    Вы можете скачивать файлы