Доктор Стрэндж

Лицензия

Добыча

MVO

Дом дракона

1 сезон

Тор

Лицензия

Мэверик

Лицензия

Там, где раки поют

MVO

Властелин колец

1 сезон

Ultimate

pack

Рекомендуем

30

Repack

ВАЖНО

ВАЖНО

Ghostwire

RePack

jed

RePack

nioh2

RePack

RDR2

RePack

NEED FOR SPEED™ PAYBACK

RePack

скачать торрент

Кинопоиск HD

Острые козырьки 6 сезон

6 сезон

FAR CRY 6

RePack

скачать торрент

Лицензия

скачать торрент

MVO

1

1 сезон

скачать торрент

1 сезон

скачать торрент

Лицензия

  

И снова утро (Геннадий Казанский) [1961, СССР, драма, SATRip от AVP Studio]

И снова утро через торрент piratbit.org

Размер: 745 MB | Добавлен: 4 года 3 мес. назад | Торрент скачан:11 раз
Смотреть онлайн И снова утро | Скачать   

14-06-2018 06:54 И снова утро Скачать торрент  

И снова утро
Страна: СССР
Производство: Ленфильм

Жанр: драма
Год выпуска: 1961
Продолжительность: 01:16:37

Перевод: Не требуется
Cубтитры: нет
Оригинальная аудиодорожка: русский

Режиссер: Геннадий Казанский

В ролях:
Владимир Самойлов, Кюнна Игнатова, Борис Рыжухин, Пантелеймон Крымов, Вера Медведева, Николай Харитонов, Вячеслав Соколов, Николай Кузьмин, Наталия Кудрявцева, Адриан Филиппов...
Об актёрах подробней

Описание:
Хирург-кардиолог Алексей Северцев полюбил московскую журналистку Елену Рябинину. Они собирались пожениться, когда Лена вернётся из Москвы. И именно в это время у Северцева на операционном столе умирает больной. Беда, как говорят, не приходит одна: спасая из под колёс поезда девочку, Северцев лишается ног. Рябинина хочет остаться с ним и после несчастья, но Алексей не принимает такой жертвы. Ему кажется, что жизнь кончена. Но на помощь к нему приходят Лена, бывшие больные, друзья. Заместитель Северцева Одинцов убеждает его сделать операцию на сердце мальчику Пете Нечаеву. Идут долгие, мучительные часы тренировок: профессор Северцев учится ходить и стоять на протезах. Он делает операцию, побеждая и собственную слабость, и смерть, грозившую маленькому пациенту.

Исходник: DVB
Качество видео: SATRip
Формат видео: AVI

Видео: 688x288 (2,40:1), 25,000 кадров/сек, XviD ~ 1159 kbps avg, 0.234 bit/pixel
Аудио: 48 kHz, Dolby Digital AC3 2.0, 192 kbps

Раздача от:
Общее
Полное имя : I.snova.utro.1961.SATRip_[New-team]_by_AVP_Studio.avi
Формат : AVI
Формат/Информация : Audio Video Interleave
Размер файла : 745 Мбайт
Продолжительность : 1 ч. 16 м.
Общий поток : 1360 Кбит/сек
Программа кодирования : VirtualDubMod 1.5.10.3 | www.virtualdub-fr.org || (build 2550/release)
Библиотека кодирования : VirtualDubMod build 2550/release

Видео
Идентификатор : 0
Формат : MPEG-4 Visual
Профиль формата : Advanced Simple@L5
Настройки формата : BVOP1 / Custom Matrix
Параметр BVOP формата : 1
Параметр QPel формата : Нет
Параметр GMC формата : Без точки перехода
Параметр матрицы формата : Выборочная
Идентификатор кодека : XVID
Идентификатор кодека/Подсказка : XviD
Продолжительность : 1 ч. 16 м.
Битрейт : 1159 Кбит/сек
Ширина : 688 пикселей
Высота : 288 пикселей
Соотношение сторон : 2,40:1
Частота кадров : 25,000 кадров/сек
Цветовое пространство : YUV
Субдискретизация насыщенности : 4:2:0
Битовая глубина : 8 бит
Тип развёртки : Прогрессивная
Метод сжатия : С потерями
Бит/(Пиксели*Кадры) : 0.234
Размер потока : 635 Мбайт (85%)
Библиотека кодирования : XviD 73

Аудио
Идентификатор : 1
Формат : AC-3
Формат/Информация : Audio Coding 3
Идентификатор кодека : 2000
Продолжительность : 1 ч. 16 м.
Вид битрейта : Постоянный
Битрейт : 192 Кбит/сек
Каналы : 2 канала
Расположение каналов : Front: L R
Частота : 48,0 КГц
Частота кадров : 31,250 кадров/сек (1536 SPF)
Битовая глубина : 16 бит
Метод сжатия : С потерями
Размер потока : 105 Мбайт (14%)
Выравнивание : Разделение по промежуткам
Продолжительность промежутка : 40 мс. (1,00 видеокадр)
Время предзагрузки промежутка : 500 мс



Скачать И снова утро через торрент http://picplus.ru/img/1806/14/263d641b.png Скачать, смотреть онлайн И снова утро бесплантно в хорошем качестве Описание:Хирург-кардиолог Алексей Северцев полюбил московскую журналистку Елену Рябинину. Они собирались пожениться, когда Лена вернётся из ... 5 10 1
Info! Золотая раздача, скачанное не засчитывается.
Торрент: Зарегистрирован [2018-06-14 06:54] · скачан: 11 раз
Статус: √ проверено
Размер: 745 MB
Как cкачать? Как скачать И снова утро через торрент | UTorrent

% Раздел Тема Автор DL S | L
Кино СССР [ 744 MB ] И снова утро | | SATRip-AVC от AVP Studio AVP Studio Скачать
1 | 0

28-11-2019 20:33  

Отключить вcю реклaмy на сайте

    Дорогой пользователь! Огромная просьба, поблагодарите релизера, оцените раздачу и оставьте свои комментарий, если Вы скачали И снова утро через торрент бесплатно!!
    Комментировать посты могут только пользователи прошедшие не сложную регистрацию
    Показать сообщения:    


    И снова утро через торрент
    Скачать бесплатно И снова утро
    И снова утро скачать торрент
    И снова утро смотреть онлайн
    Cкачать фильм И снова утро бесплатно
    И снова утро скачать торрент в хорошем качестве
    И снова утро смотреть онлайн бесплатно в хорошем качестве
    Вы не можете начинать темы
    Вы не можете отвечать на сообщения
    Вы не можете редактировать свои сообщения
    Вы не можете удалять свои сообщения
    Вы не можете голосовать в опросах
    Вы не можете прикреплять файлы к сообщениям
    Вы можете скачивать файлы