Достать ножи: Стеклянная луковица

MVO

Добыча

Дубляж

Уэнсдэй

1 сезон

Тор

Дубляж

13 клиническая

1 сезон

Жестокая ночь

MVO

Одни из нас

1 сезон

Deluxe

pack

Рекомендуем

30

Пиратка

ВАЖНО

ВАЖНО

Ghostwire

Пиратка

jed

RePack

nioh2

RePack

RDR2

RePack

NEED FOR SPEED™ PAYBACK

RePack

скачать торрент

Кинопоиск HD

Острые козырьки 6 сезон

6 сезон

FAR CRY 6

RePack

скачать торрент

Лицензия

скачать торрент

MVO

1

1 сезон

скачать торрент

1 сезон

скачать торрент

Лицензия

  

Секретное досье / The Post (Стивен Спилберг) [2017, триллер, драма, биография, история, UHD BDRemux 2160p] MVO [HDRezka] +Дубляж [Лицензия]

Секретное досье через торрент piratbit.org

Размер: 56.64 GB | Добавлен: 4 года 7 мес. назад | Торрент скачан:22 раза
Смотреть онлайн | Скачать | Поддержите нас   

16-06-2018 03:46 Секретное досье Скачать торрент  

Секретное досье / The Post
Год выпуска: 2017
Страна: США
Жанр: триллер, драма, биография, история
Продолжительность: 01:55:58
Перевод:

#1. Дублированный | Лицензия
#2. Профессиональный (многоголосый) | HDRezka

Субтитры: Russian (Full), English (Full, SDH)

Режиссер: Стивен Спилберг

rating

В ролях:


Мэрил Стрип (Kay Graham), Том Хэнкс (Ben Bradlee), Сара Полсон (Tony Bradlee), Боб Оденкёрк (Ben Bagdikian), Трэйси Леттс (Fritz Beebe), Брэдли Уитфорд (Arthur Parsons), Брюс Гринвуд (Robert McNamara), Мэттью Риз (Daniel Ellsberg), Элисон Бри (Lally Graham), Кэрри Кун (Meg Greenfield), Джесси Племонс (Roger Clark), Дэвид Кросс (Howard Simons)
Описание:

История Кэтрин Грэм, первой женщины-издателя газеты «Вашингтон пост», и редактора Бена Брэдли. Они вступают в гонку с «Нью-Йорк таймс» за право пролить свет на государственные тайны, скрывавшиеся более 30 лет. Журналистам придется преодолеть свои разногласия и рискнуть карьерой и свободой, чтобы мир узнал правду.

Качество: UHD BDRemux 2160p
Формат: MKV

Видео: HEVC, 61.6 Мбит/с, 3840x2160, 23.976 кадр/с
Аудио#1: |RUS| DTS, 48.0 kHz, 6 ch, 768 kb/s, CBR | Дублированный, Лицензия |
Аудио#2: |RUS| AC-3, 48.0 kHz, 6 ch, 448 kb/s, CBR | Дублированный, Лицензия |
Аудио#3: |RUS| AC-3, 48.0 kHz, 6 ch, 640 kb/s, CBR | MVO [HDRezka]
Аудио#4: |RUS| DTS, 48.0 kHz, 6 ch, 1 510 kb/s, CBR | MVO [HDRezka]
Аудио#5: |ENG| DTS MA / ES Matrix / Core, 48.0 kHz, 8 / 7 / 6 ch, 4 551 kb/s / 1 509 kb/s / 1 509 kb/s, VBR / CBR / CBR | Original |
Аудио#6: |ENG| AC-3, 48.0 kHz, 6 ch, 448 kb/s, CBR | Audiodeion |
скриншот  скриншот  скриншот  скриншот  

Общее
Уникальный идентификатор : 160144582277890002746925388894020439998 (0x787AB9824589CAE2ACAA1D939BD60FBE)
Полное имя : The.Post.2017.Lic.UHD.BDRemux.2160p.HEVC.HDR.IVA(2xRUS.ENG).ExKinoRay.mkv
Формат : Matroska
Версия формата : Version 4 / Version 2
Размер файла : 56,6 Гбайт
Продолжительность : 1 ч. 55 м.
Общий поток : 69,9 Мбит/сек
Название фильма : Секретное досье / The Post ( 2017 ) | UHD BDRemux | HDR, 4K | IVA(2xRUS.ENG) | ExKinoRay
Дата кодирования : UTC 2018-06-16 00:41:59
Программа кодирования : mkvmerge v24.0.0 ('Beyond The Pale') 64-bit
Библиотека кодирования : libebml v1.3.6 + libmatroska v1.4.9
Обложка : Yes
Attachments : cover

Видео
Идентификатор : 1
Формат : HEVC
Формат/Информация : High Efficiency Video Coding
Коммерческое название : HDR10
Профиль формата : Main 10@L5.1@High
Идентификатор кодека : V_MPEGH/ISO/HEVC
Продолжительность : 1 ч. 55 м.
Битрейт : 61,6 Мбит/сек
Ширина : 3840 пикселей
Высота : 2160 пикселей
Соотношение сторон : 16:9
Режим частоты кадров : Постоянный
Частота кадров : 23,976 (24000/1001) кадра/сек
Цветовое пространство : YUV
Субдискретизация насыщенности : 4:2:0 (Type 2)
Битовая глубина : 10 бит
Бит/(Пиксели*Кадры) : 0.310
Размер потока : 49,9 Гбайт (88%)
Заголовок : The.Post.2017.UHD.BDRemux.2160p
Библиотека кодирования : ATEME Titan File 3.8.13 (4.8.13.0)
Язык : English
Default : Да
Forced : Нет
Цветовой диапазон : Limited
Основные цвета : BT.2020
Характеристики трансфера : PQ
Коэффициенты матрицы : BT.2020 non-constant
MasteringDisplay_Luminance : min: 0.0050 cd/m2, max: 1000 cd/m2

Аудио #1
Идентификатор : 2
Формат : DTS
Формат/Информация : Digital Theater Systems
Идентификатор кодека : A_DTS
Продолжительность : 1 ч. 55 м.
Вид битрейта : Постоянный
Битрейт : 768 Кбит/сек
Каналы : 6 каналов
Расположение каналов : Front: L C R, Side: L R, LFE
Частота : 48,0 КГц
Частота кадров : 93,750 кадра/сек (512 SPF)
Битовая глубина : 24 бит
Метод сжатия : С потерями
Размер потока : 636 Мбайт (1%)
Заголовок : | Дублированный |
Язык : Russian
Default : Да
Forced : Нет

Аудио #2
Идентификатор : 3
Формат : AC-3
Формат/Информация : Audio Coding 3
Идентификатор кодека : A_AC3
Продолжительность : 1 ч. 55 м.
Вид битрейта : Постоянный
Битрейт : 448 Кбит/сек
Каналы : 6 каналов
Расположение каналов : Front: L C R, Side: L R, LFE
Частота : 48,0 КГц
Частота кадров : 31,250 кадров/сек (1536 SPF)
Битовая глубина : 16 бит
Метод сжатия : С потерями
Размер потока : 371 Мбайт (1%)
Заголовок : | Дублированный |
Язык : Russian
ServiceKind : Complete Main
Default : Нет
Forced : Нет

Аудио #3
Идентификатор : 4
Формат : AC-3
Формат/Информация : Audio Coding 3
Идентификатор кодека : A_AC3
Продолжительность : 1 ч. 55 м.
Вид битрейта : Постоянный
Битрейт : 640 Кбит/сек
Каналы : 6 каналов
Расположение каналов : Front: L C R, Side: L R, LFE
Частота : 48,0 КГц
Частота кадров : 31,250 кадров/сек (1536 SPF)
Битовая глубина : 16 бит
Метод сжатия : С потерями
Размер потока : 531 Мбайт (1%)
Заголовок : MVO [HDRezka]
Язык : Russian
ServiceKind : Complete Main
Default : Нет
Forced : Нет

Аудио #4
Идентификатор : 5
Формат : DTS
Формат/Информация : Digital Theater Systems
Идентификатор кодека : A_DTS
Продолжительность : 1 ч. 55 м.
Вид битрейта : Постоянный
Битрейт : 1510 Кбит/сек
Каналы : 6 каналов
Расположение каналов : Front: L C R, Side: L R, LFE
Частота : 48,0 КГц
Частота кадров : 93,750 кадра/сек (512 SPF)
Битовая глубина : 24 бит
Метод сжатия : С потерями
Размер потока : 1,22 Гбайт (2%)
Заголовок : MVO [HDRezka]
Язык : Russian
Default : Нет
Forced : Нет

Аудио #5
Идентификатор : 6
Формат : DTS
Формат/Информация : Digital Theater Systems
Профиль формата : MA / ES Matrix / Core
Идентификатор кодека : A_DTS
Продолжительность : 1 ч. 55 м.
Вид битрейта : Переменный / Постоянный / Постоянный
Битрейт : 4551 Кбит/сек / 1509 Кбит/сек / 1509 Кбит/сек
Каналы : 8 каналов / 7 каналов / 6 каналов
Расположение каналов : Front: L C R, Side: L R, Back: L R, LFE / Front: L C R, Side: L R, Back: C, LFE / Front: L C R, Side: L R, LFE
Частота : 48,0 КГц
Частота кадров : 93,750 кадра/сек (512 SPF)
Битовая глубина : 24 бит
Метод сжатия : Без потерь / Lossy / Lossy
Размер потока : 3,69 Гбайт (7%)
Заголовок : | Original |
Язык : English
Default : Нет
Forced : Нет

Аудио #6
Идентификатор : 7
Формат : AC-3
Формат/Информация : Audio Coding 3
Идентификатор кодека : A_AC3
Продолжительность : 1 ч. 55 м.
Вид битрейта : Постоянный
Битрейт : 448 Кбит/сек
Каналы : 6 каналов
Расположение каналов : Front: L C R, Side: L R, LFE
Частота : 48,0 КГц
Частота кадров : 31,250 кадров/сек (1536 SPF)
Битовая глубина : 16 бит
Метод сжатия : С потерями
Размер потока : 372 Мбайт (1%)
Заголовок : | Audiodescriprion |
Язык : English
ServiceKind : Complete Main
Default : Нет
Forced : Нет

Текст #1
Идентификатор : 8
Формат : UTF-8
Идентификатор кодека : S_TEXT/UTF8
Идентификатор кодека/Информация : UTF-8 Plain Text
Продолжительность : 1 ч. 54 м.
Битрейт : 1 бит/сек
ElementCount : 30
Размер потока : 1,58 Кбайт (0%)
Заголовок : Forced
Язык : Russian
Default : Да
Forced : Да

Текст #2
Идентификатор : 9
Формат : UTF-8
Идентификатор кодека : S_TEXT/UTF8
Идентификатор кодека/Информация : UTF-8 Plain Text
Продолжительность : 1 ч. 49 м.
Битрейт : 139 бит/сек
ElementCount : 1977
Размер потока : 112 Кбайт (0%)
Заголовок : Full
Язык : Russian
Default : Нет
Forced : Нет

Текст #3
Идентификатор : 10
Формат : UTF-8
Идентификатор кодека : S_TEXT/UTF8
Идентификатор кодека/Информация : UTF-8 Plain Text
Продолжительность : 1 ч. 48 м.
Битрейт : 88 бит/сек
ElementCount : 2170
Размер потока : 69,9 Кбайт (0%)
Заголовок : Full
Язык : English
Default : Нет
Forced : Нет

Текст #4
Идентификатор : 11
Формат : UTF-8
Идентификатор кодека : S_TEXT/UTF8
Идентификатор кодека/Информация : UTF-8 Plain Text
Продолжительность : 1 ч. 48 м.
Битрейт : 93 бит/сек
ElementCount : 2284
Размер потока : 74,1 Кбайт (0%)
Заголовок : SDH
Язык : English
Default : Нет
Forced : Нет

Меню
00:00:00.000 : en:Chapter 1
00:05:01.926 : en:Chapter 2
00:10:08.733 : en:Chapter 3
00:12:32.793 : en:Chapter 4
00:16:22.398 : en:Chapter 5
00:19:19.616 : en:Chapter 6
00:24:53.325 : en:Chapter 7
00:30:23.988 : en:Chapter 8
00:34:51.672 : en:Chapter 9
00:39:08.679 : en:Chapter 10
00:43:25.811 : en:Chapter 11
00:48:20.564 : en:Chapter 12
00:54:38.692 : en:Chapter 13
00:59:39.784 : en:Chapter 14
01:03:49.116 : en:Chapter 15
01:09:59.570 : en:Chapter 16
01:14:04.857 : en:Chapter 17
01:20:20.273 : en:Chapter 18
01:24:30.732 : en:Chapter 19
01:30:22.667 : en:Chapter 20
01:35:23.759 : en:Chapter 21
01:38:46.545 : en:Chapter 22
01:43:07.723 : en:Chapter 23
01:49:27.852 : en:Chapter 24




Скачать Секретное досье через торрент https://pic1.kartinco.top/images/11/nawib.jpg Скачать, смотреть онлайн Секретное досье бесплантно в хорошем качестве Описание: История Кэтрин Грэм, первой женщины-издателя газеты «Вашингтон пост», и редактора Бена Брэдли. Они вступают в гонку с «Нью-Йорк ... 10 10 2
Info! Золотая раздача, скачанное не засчитывается.
Торрент: Зарегистрирован [2018-06-16 03:46] · скачан: 22 раз
Статус: √ проверено
Размер: 56.64 GB
Как cкачать? Как скачать Секретное досье через торрент | UTorrent

% Раздел Тема Автор DL S | L
Ultra HD (UHD: 2K, 4K, 8K) [ 60.99 GB ] Секретное досье / The Post | Дубляж | 2160p sheker187 Скачать
1 | 0
Фильмы 2017 [DVDrip, WEB-DLRip, HDrip] (DUB, MVO) [ 2.13 GB ] Секретное досье / The Post | iTunes | BDRip-AVC, Дубляж iTunes oleg8 Скачать
1 | 0
Фильмы 2017 [DVDrip, WEB-DLRip, HDrip] (DUB, MVO) [ 2.18 GB ] Секретное досье / The Post | Лицензия | BDRip Twi7ter Скачать
1 | 0
Фильмы 2017 [DVDrip, WEB-DLRip, HDrip] (DUB, MVO) [ 1.46 GB ] Секретное досье / The Post | Лицензия | BDRip Twi7ter Скачать
1 | 0
Фильмы (Blu-ray, BD-Remux, HDDVD) [ 45.74 GB ] Секретное досье / The Post | Лицензия | 1080p bober100 Скачать
1 | 0
Фильмы 2017 [DVDrip, WEB-DLRip, HDrip] (DUB, MVO) [ 1.46 GB ] Секретное досье / The Post | Лицензия BD EUR | BDRip bober100 Скачать
1 | 0
Фильмы (Blu-ray, BD-Remux, HDDVD) [ 29.67 GB ] Секретное досье / The Post | Лицензия | BD Remux 1080p bober100 Скачать
2 | 0

28-11-2019 20:33  


Отключить вcю реклaмy на сайте, в т.ч. и в плеере онлайн просмотра!

    Дорогой пользователь! Огромная просьба, поблагодарите релизера, оцените раздачу и оставьте свои комментарий, если Вы скачали Секретное досье через торрент бесплатно!!
    Комментировать посты могут только пользователи прошедшие не сложную регистрацию
    Показать сообщения:    


    Секретное досье через торрент
    Скачать бесплатно Секретное досье
    Секретное досье скачать торрент
    Секретное досье смотреть онлайн
    Cкачать фильм Секретное досье бесплатно
    Секретное досье скачать торрент в хорошем качестве
    Секретное досье смотреть онлайн бесплатно в хорошем качестве
    Вы не можете начинать темы
    Вы не можете отвечать на сообщения
    Вы не можете редактировать свои сообщения
    Вы не можете удалять свои сообщения
    Вы не можете голосовать в опросах
    Вы не можете прикреплять файлы к сообщениям
    Вы можете скачивать файлы
    Секретное досье / The Post [2017, триллер, драма, биография, история, UHD BDRemux 2160p] MVO [HDRezka] +Дубляж [Лицензия] смотреть онлайн, скачать торрент picoco.icu