Достать ножи: Стеклянная луковица

MVO

Добыча

Дубляж

Уэнсдэй

1 сезон

Тор

Дубляж

13 клиническая

1 сезон

Жестокая ночь

MVO

Одни из нас

1 сезон

Deluxe

pack

Рекомендуем

30

Пиратка

ВАЖНО

ВАЖНО

Ghostwire

Пиратка

jed

RePack

nioh2

RePack

RDR2

RePack

NEED FOR SPEED™ PAYBACK

RePack

скачать торрент

Кинопоиск HD

Острые козырьки 6 сезон

6 сезон

FAR CRY 6

RePack

скачать торрент

Лицензия

скачать торрент

MVO

1

1 сезон

скачать торрент

1 сезон

скачать торрент

Лицензия

  

Тихоокеанский рубеж 2 / Pacific Rim: Uprising (Стивен С. ДеНайт) [2018, фантастика, боевик, приключения, UHD BDRip 2160p] Дубляж + MVO [HDRezka]

Тихоокеанский рубеж 2 через торрент piratbit.org

Размер: 22.94 GB | Добавлен: 4 года 7 мес. назад | Торрент скачан:110 раз
Смотреть онлайн | Скачать | Поддержите нас   

22-06-2018 10:23 Тихоокеанский рубеж 2 Скачать торрент  

Тихоокеанский рубеж 2 / Pacific Rim: Uprising

Год выпуска: 2018
Страна: США, Китай, Великобритания
Жанр: фантастика, боевик, приключения
Продолжительность: 01:50:42
Перевод: Дублированный, профессиональный многоголосый
Субтитры: Русские, английские, испанские, французские
Режиссер: Стивен С. ДеНайт
В ролях:

Джон Бойега (Jake Pentecost), Скотт Иствуд (Nate Lambert), Кэйли Спэни (Amara Namani), Берн Горман (Hermann Gottlieb), Чарли Дэй (Dr. Newton Geiszler), Цзин Тянь (Liwen Shao), Макс Чжан (Marshal Quan), Адриа Архона (Jules Reyes), Ринко Кикути (Mako Mori), Каран Брэр (Cadet Suresh), Уэсли Вон (Cadet Jinhai), Иванна Сахно (Cadet Viktoria)
Описание:
Команда пилотируемых роботов-защитников остановила вторжение гигантских инопланетных монстров. Великая битва за Тихоокеанский рубеж ознаменовала новую главу в истории человечества. Однако война только начинается...
Рейтинг:

MPAA: PG-13 - Детям до 13 лет просмотр не желателен
Качество: UHD BDRip 2160p
Формат: MKV
Видео: HEVC, HDR, 24.1 Mбит/с, 3840x1600, 23.976 Кадр/с
Аудио #01: Русский 48 kHz, AC3, 5.1, 384 Kbps | iTunes |
Аудио #02: Русский 48 kHz, AC3, 2.0, 192 Kbps | HDRezka |
Аудио #03: Английский 48 kHz, TrueHD, 7.1, 4000 Kbps | Оригинал |
Аудио #04: Английский 48 kHz, AC3, 5.1, 640 Kbps | Оригинал |
Аудио #05: Английский 48 kHz, AC3, 5.1, 640 Kbps | Commentary by director Steven S. DeKnight |
Навигация по главам: есть
Complete name : E:\Pacific.Rim.Uprising.2018.2160p.UHD.BluRay.X265-SpaceHD13.mkv
Format : Matroska
Format version : Version 4 / Version 2
File size : 22.9 GiB
Duration : 1 h 50 min
Overall bit rate mode : Variable
Overall bit rate : 29.7 Mb/s
Movie name : Pacific.Rim.Uprising.2018.2160p.UHD.BluRay.X265-SpaceHD13
Encoded date : UTC 2018-06-21 22:33:13
Writing application : mkvmerge v22.0.0 ('At The End Of The World') 64-bit
Writing library : libebml v1.3.5 + libmatroska v1.4.8

Video
ID : 1
Format : HEVC
Format/Info : High Efficiency Video Coding
Commercial name : HDR10
Format profile : Main 10@L5.1@High
Codec ID : V_MPEGH/ISO/HEVC
Duration : 1 h 50 min
Bit rate : 24.1 Mb/s
Width : 3 840 pixels
Height : 1 600 pixels
Display aspect ratio : 2.40:1
Frame rate mode : Constant
Frame rate : 23.976 (24000/1001) FPS
Color space : YUV
Chroma subsampling : 4:2:0 (Type 2)
Bit depth : 10 bits
Bits/(Pixel*Frame) : 0.164
Stream size : 18.7 GiB (81%)
Title : Pacific.Rim.Uprising.2018.2160p.UHD.BluRay.X265-SpaceHD13
Writing library : x265 2.8+10-703eade86b53:[Windows][GCC 8.1.0][64 bit] 10bit
Encoding settings : cpuid=1176575 / frame-threads=5 / numa-pools=32 / wpp / no-pmode / no-pme / no-psnr / no-ssim / log-level=2 / input-csp=1 / input-res=3840x1600 / interlace=0 / total-frames=159302 / level-idc=51 / high-tier=1 / uhd-bd=0 / ref=4 / no-allow-non-conformance / repeat-headers / annexb / aud / hrd / info / hash=0 / no-temporal-layers / no-open-gop / min-keyint=24 / keyint=240 / gop-lookahead=0 / bframes=4 / b-adapt=2 / b-pyramid / bframe-bias=0 / rc-lookahead=25 / lookahead-slices=4 / scenecut=40 / radl=0 / no-intra-refresh / ctu=64 / min-cu-size=8 / rect / no-amp / max-tu-size=32 / tu-inter-depth=1 / tu-intra-depth=1 / limit-tu=0 / rdoq-level=2 / dynamic-rd=0.00 / no-ssim-rd / signhide / no-tskip / nr-intra=0 / nr-inter=0 / no-constrained-intra / no-strong-intra-smoothing / max-merge=3 / limit-refs=3 / limit-modes / me=3 / subme=3 / merange=57 / temporal-mvp / weightp / no-weightb / no-analyze-src-pics / deblock=-3:-3 / no-sao / no-sao-non-deblock / rd=4 / no-early-skip / rskip / no-fast-intra / no-tskip-fast / no-cu-lossless / no-b-intra / no-splitrd-skip / rdpenalty=0 / psy-rd=2.00 / psy-rdoq=1.00 / no-rd-refine / no-lossless / cbqpoffs=0 / crqpoffs=0 / rc=crf / crf=17.0 / qcomp=0.60 / qpstep=4 / stats-write=0 / stats-read=0 / vbv-maxrate=160000 / vbv-bufsize=160000 / vbv-init=0.9 / crf-max=0.0 / crf-min=0.0 / ipratio=1.40 / pbratio=1.30 / aq-mode=1 / aq-strength=1.00 / cutree / zone-count=0 / no-strict-cbr / qg-size=32 / no-rc-grain / qpmax=69 / qpmin=0 / no-const-vbv / sar=1 / overscan=0 / videoformat=5 / range=0 / colorprim=9 / transfer=16 / colormatrix=9 / chromaloc=1 / chromaloc-top=2 / chromaloc-bottom=2 / display-window=0 / master-display=G(13250,34500)B(7500,3000)R(34000,16000)WP(15635,16450)L(10000000,50) / max-cll=1000,863 / min-luma=0 / max-luma=1023 / log2-max-poc-lsb=8 / vui-timing-info / vui-hrd-info / slices=1 / no-opt-qp-pps / no-opt-ref-list-length-pps / no-multi-pass-opt-rps / scenecut-bias=0.05 / no-opt-cu-delta-qp / no-aq-motion / hdr / hdr-opt / no-dhdr10-opt / no-idr-recovery-sei / analysis-reuse-level=5 / scale-factor=0 / refine-intra=0 / refine-inter=0 / refine-mv=0 / no-limit-sao / ctu-info=0 / no-lowpass-dct / refine-mv-type=0 / copy-pic=1 / max-ausize-factor=1.0 / no-dynamic-refine / no-single-sei
Default : Yes
Forced : No
Color range : Limited
Color primaries : BT.2020
Transfer characteristics : PQ
Matrix coefficients : BT.2020 non-constant
Mastering display color pri : Display P3
Mastering display luminance : min: 0.0050 cd/m2, max: 1000 cd/m2
Maximum Content Light Level : 1000 cd/m2
Maximum Frame-Average Light : 863 cd/m2

Audio #1
ID : 2
Format : TrueHD
Format profile : TrueHD+Atmos / TrueHD
Codec ID : A_TRUEHD
Duration : 1 h 50 min
Bit rate mode : Variable
Bit rate : 4 000 kb/s
Maximum bit rate : 7 437 kb/s
Channel(s) : Object Based / 8 channels
Channel positions : Object Based / Front: L C R, Side: L R, Back: L R, LFE
Sampling rate : / 48.0 kHz
Frame rate : 1 200.000 FPS (40 SPF)
Compression mode : Lossless
Stream size : 3.09 GiB (13%)
Title : Pacific.Rim.Uprising.2018.2160p.UHD.BluRay.X265-SpaceHD13
Language : English
Default : No
Forced : No

Audio #2
ID : 3
Format : AC-3
Format/Info : Audio Coding 3
Codec ID : A_AC3
Duration : 1 h 50 min
Bit rate mode : Constant
Bit rate : 640 kb/s
Channel(s) : 6 channels
Channel positions : Front: L C R, Side: L R, LFE
Sampling rate : 48.0 kHz
Frame rate : 31.250 FPS (1536 SPF)
Bit depth : 16 bits
Compression mode : Lossy
Stream size : 507 MiB (2%)
Title : Pacific.Rim.Uprising.2018.2160p.UHD.BluRay.X265-SpaceHD13
Language : English
Service kind : Complete Main
Default : No
Forced : No

Audio #3
ID : 4
Format : AC-3
Format/Info : Audio Coding 3
Codec ID : A_AC3
Duration : 1 h 50 min
Bit rate mode : Constant
Bit rate : 384 kb/s
Channel(s) : 6 channels
Channel positions : Front: L C R, Side: L R, LFE
Sampling rate : 48.0 kHz
Frame rate : 31.250 FPS (1536 SPF)
Bit depth : 16 bits
Compression mode : Lossy
Stream size : 304 MiB (1%)
Title : Pacific.Rim.Uprising.2018.2160p.UHD.BluRay.X265-SpaceHD13[Дубляж]
Language : Russian
Service kind : Complete Main
Default : Yes
Forced : Yes

Audio #4
ID : 5
Format : AC-3
Format/Info : Audio Coding 3
Codec ID : A_AC3
Duration : 1 h 50 min
Bit rate mode : Constant
Bit rate : 192 kb/s
Channel(s) : 2 channels
Channel positions : Front: L R
Sampling rate : 48.0 kHz
Frame rate : 31.250 FPS (1536 SPF)
Bit depth : 16 bits
Compression mode : Lossy
Stream size : 152 MiB (1%)
Title : Pacific.Rim.Uprising.2018.2160p.UHD.BluRay.X265-SpaceHD13[HDRezka]
Language : Russian
Service kind : Complete Main
Default : No
Forced : No

Audio #5
ID : 6
Format : AC-3
Format/Info : Audio Coding 3
Codec ID : A_AC3
Duration : 1 h 50 min
Bit rate mode : Constant
Bit rate : 192 kb/s
Channel(s) : 2 channels
Channel positions : Front: L R
Sampling rate : 48.0 kHz
Frame rate : 31.250 FPS (1536 SPF)
Bit depth : 16 bits
Compression mode : Lossy
Stream size : 152 MiB (1%)
Title : Commentary by director Steven S. DeKnight
Language : English
Service kind : Complete Main
Default : No
Forced : No

Text #1
ID : 7
Format : UTF-8
Codec ID : S_TEXT/UTF8
Codec ID/Info : UTF-8 Plain Text
Duration : 1 h 40 min
Bit rate : 59 b/s
Count of elements : 1395
Stream size : 43.9 KiB (0%)
Title : Stripped SRT (not positioned)
Language : English
Default : No
Forced : No

Text #2
ID : 8
Format : UTF-8
Codec ID : S_TEXT/UTF8
Codec ID/Info : UTF-8 Plain Text
Duration : 1 h 40 min
Bit rate : 66 b/s
Count of elements : 1600
Stream size : 48.8 KiB (0%)
Title : SDH SRT (not positioned)
Language : English
Default : No
Forced : No

Text #3
ID : 9
Format : PGS
Muxing mode : zlib
Codec ID : S_HDMV/PGS
Codec ID/Info : Picture based subtitle format used on BDs/HD-DVDs
Duration : 1 h 38 min
Bit rate : 1 152 b/s
Count of elements : 50
Stream size : 827 KiB (0%)
Title : Forced
Language : Russian
Default : No
Forced : No

Text #4
ID : 10
Format : PGS
Muxing mode : zlib
Codec ID : S_HDMV/PGS
Codec ID/Info : Picture based subtitle format used on BDs/HD-DVDs
Duration : 1 h 40 min
Bit rate : 57.3 kb/s
Count of elements : 2382
Stream size : 41.0 MiB (0%)
Title : full
Language : Russian
Default : Yes
Forced : Yes

Text #5
ID : 11
Format : PGS
Muxing mode : zlib
Codec ID : S_HDMV/PGS
Codec ID/Info : Picture based subtitle format used on BDs/HD-DVDs
Duration : 1 h 40 min
Bit rate : 45.0 kb/s
Count of elements : 3200
Stream size : 32.2 MiB (0%)
Title : SDH
Language : English
Default : No
Forced : No

Text #6
ID : 12
Format : PGS
Muxing mode : zlib
Codec ID : S_HDMV/PGS
Codec ID/Info : Picture based subtitle format used on BDs/HD-DVDs
Duration : 1 h 49 min
Bit rate : 32.1 kb/s
Count of elements : 2938
Stream size : 25.2 MiB (0%)
Language : French
Default : No
Forced : No

Text #7
ID : 13
Format : PGS
Muxing mode : zlib
Codec ID : S_HDMV/PGS
Codec ID/Info : Picture based subtitle format used on BDs/HD-DVDs
Duration : 1 h 49 min
Bit rate : 30.8 kb/s
Count of elements : 2892
Stream size : 24.2 MiB (0%)
Language : Spanish
Default : No
Forced : No

Menu
00:00:00.000 : en:00:00:00.000
00:06:54.873 : en:00:06:54.873
00:13:05.368 : en:00:13:05.368
00:15:51.075 : en:00:15:51.075
00:20:36.360 : en:00:20:36.360
00:24:49.697 : en:00:24:49.697
00:31:08.241 : en:00:31:08.241
00:37:56.065 : en:00:37:56.065
00:43:37.949 : en:00:43:37.949
00:49:01.939 : en:00:49:01.939
00:53:40.926 : en:00:53:40.926
00:58:12.030 : en:00:58:12.030
01:04:45.006 : en:01:04:45.006
01:09:25.536 : en:01:09:25.536
01:14:36.722 : en:01:14:36.722
01:22:53.427 : en:01:22:53.427
01:29:02.546 : en:01:29:02.546
01:33:10.585 : en:01:33:10.585
01:38:07.381 : en:01:38:07.381
01:40:55.049 : en:01:40:55.049



Скачать Тихоокеанский рубеж 2 через торрент https://a.radikal.ru/a08/1806/a5/201c863e032b.jpg Скачать, смотреть онлайн Тихоокеанский рубеж 2 бесплантно в хорошем качестве Описание: Команда пилотируемых роботов-защитников остановила вторжение гигантских инопланетных монстров. Великая битва за Тихоокеанский ... 10 10 10
Info! Золотая раздача, скачанное не засчитывается.
Торрент: Зарегистрирован [2018-06-22 10:23] · скачан: 110 раз
Статус: √ проверено
Размер: 22.94 GB
Как cкачать? Как скачать Тихоокеанский рубеж 2 через торрент | UTorrent

% Раздел Тема Автор DL S | L
Фильмы (HD 720p, 1080p) (48-60 fps) [ 4.55 GB ] Тихоокеанский рубеж 2 / Pacific Rim: Uprising | Дубляж | 720p / 60 FPS slaventi-69 Скачать
1 | 0
Ultra HD (UHD: 2K, 4K, 8K) [ 60.11 GB ] Тихоокеанский рубеж 2 / Pacific Rim Uprising | Лицензия | 2160p bober100 Скачать
1 | 0
Фильмы [HD 720p, 1080p] (Хороший звук DUB, MVO) [ 6.64 GB ] Тихоокеанский рубеж 2 / Pacific Rim Uprising | Лицензия | 720p bober100 Скачать
1 | 0
3D Фильмы [ 13.16 GB ] Тихоокеанский рубеж 2 3Д / Pacific Rim Uprising 3D | iTunes | 1080p bober100 Скачать
1 | 0
Фильмы (WEB-DL 720p, 1080p) [ 3.79 GB ] Тихоокеанский рубеж 2 / Pacific Rim Uprising | iTunes | 1080p bober100 Скачать
1 | 0
Фильмы [HD 720p, 1080p] (Хороший звук DUB, MVO) [ 12.83 GB ] Тихоокеанский рубеж 2 / Pacific Rim Uprising | Лицензия | 1080p bober100 Скачать
2 | 0
Фильмы 2018 [DVDrip, WEB-DLRip, HDrip] (DUB, MVO) [ 3.21 GB ] Тихоокеанский рубеж 2 / Pacific Rim Uprising | Лицензия | BDRip-AVC Enigma2010 Скачать
1 | 0

28-11-2019 20:33  


Отключить вcю реклaмy на сайте, в т.ч. и в плеере онлайн просмотра!

17-09-2018 15:39 Тихоокеанский рубеж 2 Скачать торрент  

Спасибо



06-11-2021 12:50 Тихоокеанский рубеж 2 Скачать торрент  

раздача кончилась?



17-10-2022 21:26 Тихоокеанский рубеж 2 Скачать торрент  

раздачу бы....



    Дорогой пользователь! Огромная просьба, поблагодарите релизера, оцените раздачу и оставьте свои комментарий, если Вы скачали Тихоокеанский рубеж 2 через торрент бесплатно!!
    Комментировать посты могут только пользователи прошедшие не сложную регистрацию
    Показать сообщения:    


    Тихоокеанский рубеж 2 через торрент
    Скачать бесплатно Тихоокеанский рубеж 2
    Тихоокеанский рубеж 2 скачать торрент
    Тихоокеанский рубеж 2 смотреть онлайн
    Cкачать фильм Тихоокеанский рубеж 2 бесплатно
    Тихоокеанский рубеж 2 скачать торрент в хорошем качестве
    Тихоокеанский рубеж 2 смотреть онлайн бесплатно в хорошем качестве
    Вы не можете начинать темы
    Вы не можете отвечать на сообщения
    Вы не можете редактировать свои сообщения
    Вы не можете удалять свои сообщения
    Вы не можете голосовать в опросах
    Вы не можете прикреплять файлы к сообщениям
    Вы можете скачивать файлы
    Тихоокеанский рубеж 2 / Pacific Rim: Uprising [2018, фантастика, боевик, приключения, UHD BDRip 2160p] Дубляж + MVO [HDRezka] смотреть онлайн, скачать торрент picoco.icu