Достать ножи: Стеклянная луковица

MVO

Добыча

Дубляж

Уэнсдэй

1 сезон

Тор

Дубляж

13 клиническая

1 сезон

Жестокая ночь

MVO

Одни из нас

1 сезон

Deluxe

pack

Рекомендуем

30

Пиратка

ВАЖНО

ВАЖНО

Ghostwire

Пиратка

jed

RePack

nioh2

RePack

RDR2

RePack

NEED FOR SPEED™ PAYBACK

RePack

скачать торрент

Кинопоиск HD

Острые козырьки 6 сезон

6 сезон

FAR CRY 6

RePack

скачать торрент

Лицензия

скачать торрент

MVO

1

1 сезон

скачать торрент

1 сезон

скачать торрент

Лицензия

  

Джерри Магуайер / Jerry Maguire (Кэмерон Кроу) [1996, Комедия, драма, мелодрама, UHD BDRemux 2160p] Дубляж+MVO+AVO

Джерри Магуайер через торрент piratbit.org

Размер: 60.15 GB | Добавлен: 2 года 7 мес. назад | Торрент скачан:6 раз
Смотреть онлайн | Скачать | Поддержите нас   

22-06-2018 15:21 Джерри Магуайер Скачать торрент  

Джерри Магуайер | Jerry Maguire
Год выпуска: 1996
Страна: США
Студия: TriStar Pictures
Жанр: Комедия, драма, мелодрама
Продолжительность: 02:18:36
Перевод:
#1: Дублированный
#2: Профессиональный многоголосый
#3: Авторский
Субтитры: Русские (Full), английские

Режиссер: Кэмерон Кроу

rating

В ролях: Том Круз, Кьюба Гудинг мл., Рене Зеллвегер, Келли Престон, Джерри О`Коннелл, Джей Мор, Бонни Хант, Реджина Кинг, Джонатан Липники, Тодд Луисо

Описание: Уволенный за критику начальства, спортивный агент Джерри Магуайер решает создать свою фирму. Лишь два человека верят в него — влюбленная в Магуайера Дороти и Род Тидвелл — талантливый спортсмен, но нахальный и крайне злобный тип. Но обстоятельства не останавливают Джерри — он уверен в себе и твердо знает, чего хочет. И все могло бы быть как нельзя лучше, если бы не его бывшие коллеги. Для них все методы хороши — особенно если нужно доказать правдолюбцу, кто правит бал. И Джерри Магуайер знает — если он проиграет, то встать на ноги ему не удастся никогда.

Качество: UHD BDRemux 2160p
Формат: MKV

Видео: 3840x2160 at 23.976 fps, MPEG-H HEVC HDR Video, 54800 kbps avg
Аудио #01: 48 kHz, AC3, 5.1, 640 Kbps | Лицензия | RUS |
Аудио #02: 48 kHz, AC3, 2.0, 256 Kbps | Профессиональный многоголосый | RUS |
Аудио #03: 48 kHz, DTS-HD MA, 5.1, 2345 Kbps | Живов | RUS |
Аудио #04: 48 kHz, TrueHD, 7.1, 3394 Kbps | Оригинал | ENG |
Аудио #05: 48 kHz, AC3, 5.1, 640 Kbps | Оригинал | ENG |
скриншот  скриншот  скриншот  скриншот  скриншот  

General
Unique ID : 181830255137904094440279238086456582912 (0x88CB3BBAA26CD1034CD5C5C949A12300)
Complete name : E:Video111Jerry.Maguire.1996.BDREMUX.2160p.HDR.seleZen.mkv
Format : Matroska
Format version : Version 4
File size : 60.1 GiB
Duration : 2 h 18 min
Overall bit rate mode : Variable
Overall bit rate : 62.1 Mb/s
Movie name : Jerry Maguire 1996 from селезень
Encoded date : UTC 2020-06-22 09:46:53
Writing application : mkvmerge v40.0.0 ('Old Town Road + Pony') 64-bit
Writing library : libebml v1.3.9 + libmatroska v1.5.2

Video
ID : 1
Format : HEVC
Format/Info : High Efficiency Video Coding
Format profile : Main 10@L5.1@High
HDR format : SMPTE ST 2086, HDR10 compatible
Codec ID : V_MPEGH/ISO/HEVC
Duration : 2 h 18 min
Bit rate : 54.8 Mb/s
Width : 3 840 pixels
Height : 2 160 pixels
Display aspect ratio : 16:9
Frame rate mode : Constant
Frame rate : 23.976 (24000/1001) FPS
Color space : YUV
Chroma subsampling : 4:2:0 (Type 2)
Bit depth : 10 bits
Bits/(Pixel*Frame) : 0.276
Stream size : 53.0 GiB (88%)
Language : English
Default : Yes
Forced : No
Color range : Limited
Color primaries : BT.2020
Transfer characteristics : PQ
Matrix coefficients : BT.2020 non-constant
Mastering display color pri : Display P3
Mastering display luminance : min: 0.0001 cd/m2, max: 1000 cd/m2
Maximum Content Light Level : 5693 cd/m2
Maximum Frame-Average Light : 643 cd/m2

Audio #1
ID : 2
Format : AC-3
Format/Info : Audio Coding 3
Commercial name : Dolby Digital
Codec ID : A_AC3
Duration : 2 h 18 min
Bit rate mode : Constant
Bit rate : 640 kb/s
Channel(s) : 6 channels
Channel layout : L R C LFE Ls Rs
Sampling rate : 48.0 kHz
Frame rate : 31.250 FPS (1536 SPF)
Compression mode : Lossy
Stream size : 634 MiB (1%)
Title : Дубляж [License]
Language : Russian
Service kind : Complete Main
Default : Yes
Forced : Yes

Audio #2
ID : 3
Format : AC-3
Format/Info : Audio Coding 3
Commercial name : Dolby Digital
Codec ID : A_AC3
Duration : 2 h 18 min
Bit rate mode : Constant
Bit rate : 256 kb/s
Channel(s) : 2 channels
Channel layout : L R
Sampling rate : 48.0 kHz
Frame rate : 31.250 FPS (1536 SPF)
Compression mode : Lossy
Stream size : 254 MiB (0%)
Title : MVO
Language : Russian
Service kind : Complete Main
Default : No
Forced : No

Audio #3
ID : 4
Format : DTS XLL
Format/Info : Digital Theater Systems
Commercial name : DTS-HD Master Audio
Codec ID : A_DTS
Duration : 2 h 18 min
Bit rate mode : Variable
Bit rate : 2 345 kb/s
Channel(s) : 6 channels
Channel layout : C L R Ls Rs LFE
Sampling rate : 48.0 kHz
Frame rate : 93.750 FPS (512 SPF)
Bit depth : 16 bits
Compression mode : Lossless
Stream size : 2.27 GiB (4%)
Title : AVO [Живов]
Language : Russian
Default : No
Forced : No

Audio #4
ID : 5
Format : MLP FBA 16-ch
Format/Info : Meridian Lossless Packing FBA with 16-channel presentation
Commercial name : Dolby TrueHD with Dolby Atmos
Codec ID : A_TRUEHD
Duration : 2 h 18 min
Bit rate mode : Variable
Bit rate : 3 394 kb/s
Maximum bit rate : 4 878 kb/s
Channel(s) : 8 channels
Channel layout : L R C LFE Ls Rs Lb Rb
Sampling rate : 48.0 kHz
Frame rate : 1 200.000 FPS (40 SPF)
Compression mode : Lossless
Stream size : 3.28 GiB (5%)
Title : Original
Language : English
Default : No
Forced : No
Number of dynamic objects : 11
Bed channel count : 1 channel
Bed channel configuration : LFE

Audio #5
ID : 6
Format : AC-3
Format/Info : Audio Coding 3
Commercial name : Dolby Digital
Codec ID : A_AC3
Duration : 2 h 18 min
Bit rate mode : Constant
Bit rate : 640 kb/s
Channel(s) : 6 channels
Channel layout : L R C LFE Ls Rs
Sampling rate : 48.0 kHz
Frame rate : 31.250 FPS (1536 SPF)
Compression mode : Lossy
Stream size : 634 MiB (1%)
Language : English
Service kind : Complete Main
Default : No
Forced : No

Text #1
ID : 7
Format : UTF-8
Codec ID : S_TEXT/UTF8
Codec ID/Info : UTF-8 Plain Text
Duration : 2 h 12 min
Bit rate : 106 b/s
Count of elements : 1653
Stream size : 104 KiB (0%)
Title : Full
Language : Russian
Default : No
Forced : No

Text #2
ID : 8
Format : UTF-8
Codec ID : S_TEXT/UTF8
Codec ID/Info : UTF-8 Plain Text
Duration : 2 h 17 min
Bit rate : 81 b/s
Count of elements : 2226
Stream size : 82.4 KiB (0%)
Title : SDH
Language : English
Default : No
Forced : No

Menu
00:00:00.000 : en:Chapter 01
00:12:44.806 : en:Chapter 02
00:20:46.203 : en:Chapter 03
00:29:14.336 : en:Chapter 04
00:36:32.524 : en:Chapter 05
00:44:46.142 : en:Chapter 06
00:59:38.283 : en:Chapter 07
01:06:39.871 : en:Chapter 08
01:18:15.524 : en:Chapter 09
01:28:05.906 : en:Chapter 10
01:34:01.427 : en:Chapter 11
01:37:51.324 : en:Chapter 12
01:45:43.629 : en:Chapter 13
01:55:45.939 : en:Chapter 14
02:01:03.798 : en:Chapter 15
02:10:15.391 : en:Chapter 16




Скачать Джерри Магуайер через торрент https://i112.fastpic.ru/big/2020/0628/b8/b35573e3e55ceb359b885dff4d0595b8.jpg Скачать, смотреть онлайн Джерри Магуайер бесплантно в хорошем качестве Описание: Уволенный за критику начальства, спортивный агент Джерри Магуайер решает создать свою фирму. Лишь два человека верят в него — ... 10 10 5
Торрент: Зарегистрирован [2020-06-28 06:25] · скачан: 6 раз
Статус: √ проверено
Размер: 60.15 GB
Как cкачать? Как скачать Джерри Магуайер через торрент | UTorrent




Последний раз редактировалось: bober100 (2020-06-28 06:25), всего редактировалось 1 раз

28-11-2019 20:33  


Отключить вcю реклaмy на сайте, в т.ч. и в плеере онлайн просмотра!

    Дорогой пользователь! Огромная просьба, поблагодарите релизера, оцените раздачу и оставьте свои комментарий, если Вы скачали Джерри Магуайер через торрент бесплатно!!
    Комментировать посты могут только пользователи прошедшие не сложную регистрацию
    Показать сообщения:    


    Джерри Магуайер через торрент
    Скачать бесплатно Джерри Магуайер
    Джерри Магуайер скачать торрент
    Джерри Магуайер смотреть онлайн
    Cкачать фильм Джерри Магуайер бесплатно
    Джерри Магуайер скачать торрент в хорошем качестве
    Джерри Магуайер смотреть онлайн бесплатно в хорошем качестве
    Вы не можете начинать темы
    Вы не можете отвечать на сообщения
    Вы не можете редактировать свои сообщения
    Вы не можете удалять свои сообщения
    Вы не можете голосовать в опросах
    Вы не можете прикреплять файлы к сообщениям
    Вы можете скачивать файлы
    Джерри Магуайер / Jerry Maguire [1996, Комедия, драма, мелодрама, UHD BDRemux 2160p] Дубляж+MVO+AVO смотреть онлайн, скачать торрент picoco.icu