Доктор Стрэндж

Лицензия

Добыча

MVO

Дом дракона

1 сезон

Тор

Лицензия

Мэверик

Лицензия

Там, где раки поют

MVO

Властелин колец

1 сезон

Ultimate

pack

Рекомендуем

30

Repack

ВАЖНО

ВАЖНО

Ghostwire

RePack

jed

RePack

nioh2

RePack

RDR2

RePack

NEED FOR SPEED™ PAYBACK

RePack

скачать торрент

Кинопоиск HD

Острые козырьки 6 сезон

6 сезон

FAR CRY 6

RePack

скачать торрент

Лицензия

скачать торрент

MVO

1

1 сезон

скачать торрент

1 сезон

скачать торрент

Лицензия

  

Прыжок на заре (Иван Лукинский) [1960, СССР, военный, VHSRip от AVP Studio]

Прыжок на заре через торрент piratbit.org

Размер: 1.09 GB | Добавлен: 4 года 3 мес. назад | Торрент скачан:21 раз
Смотреть онлайн | Скачать   

23-06-2018 08:17 Прыжок на заре Скачать торрент  

Прыжок на заре
Страна: СССР
Производство: Киностудия им. Горького

Жанр: военный
Год выпуска: 1960
Продолжительность: 01:35:33

Перевод: Не требуется
Cубтитры: нет
Оригинальная аудиодорожка: русский

Режиссер: Иван Лукинский

В ролях:
Владимир Костин, Владимир Кашпур, Тамара Витченко, Валентина Владимирова, Елизавета Кузюрина, Владимир Колокольцев, Владимир Златоустовский, Эрнест Мартиросов, Никифор Колофидин, Алексей Зубов, Георгий Куликов, Владимир Костарев, Евгений Новиков, Михаил Шаров...
Об актёрах подробней

Описание:
По роману Георгия Берёзко «Сильнее атома».
В подразделении десантников - одни первогодки. Заводила и общий любимец - Андрей Воронков. Командует солдатами немолодой старшина Елистратов (Владимир Кашпур), прозванный Додоном. Он кажется Андрею педантом, признающим только муштру. Отношения между Додоном и Воронковым напряжённые...

Исходник: S-VHS
Качество видео: VHSRip
Формат видео: AVI

Видео: 688x512 (4:3), 25,000 кадров/сек, XviD ~ 1432 kbps avg, 0.163 bit/pixel
Аудио: 48 kHz, Dolby Digital AC3 2.0, 192 kbps

Раздача от:
Общее
Полное имя : Pryzhok.na.zare.1960.VHSRip_[New-team]_by_AVP_Studio.avi
Формат : AVI
Формат/Информация : Audio Video Interleave
Размер файла : 1,09 Гбайт
Продолжительность : 1 ч. 35 м.
Общий поток : 1634 Кбит/сек
Программа кодирования : VirtualDubMod 1.5.10.3 | www.virtualdub-fr.org || (build 2550/release)
Библиотека кодирования : VirtualDubMod build 2550/release

Видео
Идентификатор : 0
Формат : MPEG-4 Visual
Профиль формата : Advanced Simple@L5
Настройки формата : BVOP1 / Custom Matrix
Параметр BVOP формата : 1
Параметр QPel формата : Нет
Параметр GMC формата : Без точки перехода
Параметр матрицы формата : Выборочная
Идентификатор кодека : XVID
Идентификатор кодека/Подсказка : XviD
Продолжительность : 1 ч. 35 м.
Битрейт : 1432 Кбит/сек
Ширина : 688 пикселей
Высота : 512 пикселей
Соотношение сторон : 4:3
Частота кадров : 25,000 кадров/сек
Цветовое пространство : YUV
Субдискретизация насыщенности : 4:2:0
Битовая глубина : 8 бит
Тип развёртки : Прогрессивная
Метод сжатия : С потерями
Бит/(Пиксели*Кадры) : 0.163
Размер потока : 979 Мбайт (88%)
Библиотека кодирования : XviD 73

Аудио
Идентификатор : 1
Формат : AC-3
Формат/Информация : Audio Coding 3
Идентификатор кодека : 2000
Продолжительность : 1 ч. 35 м.
Вид битрейта : Постоянный
Битрейт : 192 Кбит/сек
Каналы : 2 канала
Расположение каналов : Front: L R
Частота : 48,0 КГц
Частота кадров : 31,250 кадров/сек (1536 SPF)
Битовая глубина : 16 бит
Метод сжатия : С потерями
Размер потока : 131 Мбайт (12%)
Выравнивание : Разделение по промежуткам
Продолжительность промежутка : 40 мс. (1,00 видеокадр)
Время предзагрузки промежутка : 500 мс



Скачать Прыжок на заре через торрент http://picplus.ru/img/1806/23/84bec98f.png Скачать, смотреть онлайн Прыжок на заре бесплантно в хорошем качестве Описание:По роману Георгия Берёзко «Сильнее атома».В подразделении десантников - одни первогодки. Заводила и общий любимец - Андрей ... 5 10 1
Info! Золотая раздача, скачанное не засчитывается.
Торрент: Зарегистрирован [2018-06-23 08:17] · скачан: 21 раз
Статус: √ проверено
Размер: 1.09 GB
Как cкачать? Как скачать Прыжок на заре через торрент | UTorrent

% Раздел Тема Автор DL S | L
Кино СССР [ 1.09 GB ] Прыжок на заре | | Прыжок на заре (Иван Лукинский AVP Studio Скачать
1 | 0

28-11-2019 20:33  


Отключить вcю реклaмy на сайте, в т.ч. и в плеере онлайн просмотра!

    Дорогой пользователь! Огромная просьба, поблагодарите релизера, оцените раздачу и оставьте свои комментарий, если Вы скачали Прыжок на заре через торрент бесплатно!!
    Комментировать посты могут только пользователи прошедшие не сложную регистрацию
    Показать сообщения:    


    Прыжок на заре через торрент
    Скачать бесплатно Прыжок на заре
    Прыжок на заре скачать торрент
    Прыжок на заре смотреть онлайн
    Cкачать фильм Прыжок на заре бесплатно
    Прыжок на заре скачать торрент в хорошем качестве
    Прыжок на заре смотреть онлайн бесплатно в хорошем качестве
    Вы не можете начинать темы
    Вы не можете отвечать на сообщения
    Вы не можете редактировать свои сообщения
    Вы не можете удалять свои сообщения
    Вы не можете голосовать в опросах
    Вы не можете прикреплять файлы к сообщениям
    Вы можете скачивать файлы