Достать ножи: Стеклянная луковица

MVO

Добыча

Дубляж

Уэнсдэй

1 сезон

Тор

Дубляж

13 клиническая

1 сезон

Жестокая ночь

MVO

Одни из нас

1 сезон

Deluxe

pack

Рекомендуем

30

Пиратка

ВАЖНО

ВАЖНО

Ghostwire

Пиратка

jed

RePack

nioh2

RePack

RDR2

RePack

NEED FOR SPEED™ PAYBACK

RePack

скачать торрент

Кинопоиск HD

Острые козырьки 6 сезон

6 сезон

FAR CRY 6

RePack

скачать торрент

Лицензия

скачать торрент

MVO

1

1 сезон

скачать торрент

1 сезон

скачать торрент

Лицензия

  

Tomb Raider: Лара Крофт / Tomb Raider (Роар Утхауг) [2018 г., боевик, приключения, UHDRip 2160p, HEVC (10bit), Дубляж]

Tomb Raider: Лара Крофт через торрент piratbit.org

Размер: 11.91 GB | Добавлен: 4 года 7 мес. назад | Торрент скачан:260 раз
Смотреть онлайн | Скачать | Поддержите нас   

23-06-2018 12:31 Tomb Raider: Лара Крофт Скачать торрент  

Tomb Raider: Лара Крофт / Tomb Raider
Год выпуска: 2018
Страна: Великобритания, США
Жанр: боевик, приключения
Продолжительность: 01:57:50
Перевод: Дубляж
Субтитры: Русские(Forced)

Режиссер: Роар Утхауг

rating

В ролях: Алисия Викандер, Доминик Уэст, Уолтон Гоггинс, Дэниэл Ву, Кристин Скотт Томас, Дерек Джекоби, Александр Виллауме, Тамер Барджаг, Эдриан Коллинз, Кинэн Эррисон

Описание: Лара Крофт - весьма самостоятельная дочь эксцентричного искателя приключений, который пропал, едва она стала подростком. Теперь ей двадцать один, она бесцельно проживает свою жизнь, курьером рассекая на байке по забитым улицам восточного Лондона, а ее заработка едва хватает на оплату квартиры и занятий в колледже. Решительно настроенная пробиться сама, она отказывается брать на себя руководство глобальной империей отца, столь же категорично отвергая мысль о том, что он действительно пропал. Слыша советы о том, что ей нужно смириться с этим фактом и жить дальше после семи лет бесплодных поисков, Лара уже и сама не понимает, что же заставляет ее распутывать обстоятельства его таинственной смерти.
H.265/HEVC (High Efficiency Video Coding) - это новый стандарт кодирования видео.
- Стандарт H.265/HEVC является логическим продолжением стандарта
H.264/AVC (Advanced Video Coding), и характеризуется более эффективными
алгоритмами сжатия, а также поддержкой высокого разрешения вплоть до 8K UHD
(8192x4320). Первая версия стандарта H.265 была опубликована в начале 2013 года.
- Рипы в фомате HEVC поддерживается не всеми аппаратными проигрывателями.
- Для корректного воспроизведения может потребоваться обновление ПО.
- Владельцам несовместимого железа просьба не беспокоить,
есть альтернативные релизы.
Качество: UHDRip 2160p
Формат: MKV
Видео кодек: H.265
Аудио кодек: AC3
Видео: 3840x1604, ~14,000 Kbps
Аудио#1: AC3, 6 ch, 448 Kbps
Релиз от: HANNIBAL Семпл
General
Unique ID : 233174426685006224012302769210957943163 (0xAF6BC2D4F22C7D9A04C7C341F6C2D17B)
Complete name : G:\[HEVC]\UHD [HEVC]\Tomb Raider (2018) UHDRip 2160p [HEVC] 10bit.mkv
Format : Matroska
Format version : Version 4 / Version 2
File size : 11.9 GiB
Duration : 1 h 57 min
Overall bit rate : 14.5 Mb/s
Movie name : Tomb Raider: Лара Крофт / Tomb Raider ( 2018 ) UHD BDRemux | HDR, 4K | IVA(3xRUS.UKR.ENG) | ExKinoRay
Encoded date : UTC 2018-06-23 10:58:05
Writing application : mkvmerge v20.0.0 ('I Am The Sun') 64-bit
Writing library : libebml v1.3.5 + libmatroska v1.4.8 / Lavf57.71.100
Cover : Yes
Attachments : cover.jpg
ENCODING_INFO : MATROSKA,WEBM > MKV 2160p 10-bit / HEVC > X265 ABR 14000kbps Fast / AC3 > AC3 CBR 448kbps

Video
ID : 1
Format : HEVC
Format/Info : High Efficiency Video Coding
Format profile : Main 10@L5@Main
Codec ID : V_MPEGH/ISO/HEVC
Duration : 1 h 57 min
Bit rate : 14.0 Mb/s
Width : 3 840 pixels
Height : 1 604 pixels
Display aspect ratio : 2.40:1
Frame rate mode : Constant
Frame rate : 23.976 (24000/1001) FPS
Color space : YUV
Chroma subsampling : 4:2:0
Bit depth : 10 bits
Bits/(Pixel*Frame) : 0.095
Stream size : 11.5 GiB (97%)
Writing library : x265 2.7+336-07defe235cde:[Windows][clang 7.0.0][64 bit] 10bit
Encoding settings : cpuid=1049583 / frame-threads=5 / numa-pools=4 / wpp / no-pmode / no-pme / no-psnr / no-ssim / log-level=3 / input-csp=1 / input-res=3840x1604 / interlace=0 / total-frames=0 / level-idc=0 / high-tier=1 / uhd-bd=0 / ref=3 / allow-non-conformance / no-repeat-headers / annexb / no-aud / no-hrd / info / hash=0 / no-temporal-layers / open-gop / min-keyint=24 / keyint=240 / gop-lookahead=0 / bframes=6 / b-adapt=0 / b-pyramid / bframe-bias=0 / rc-lookahead=15 / lookahead-slices=8 / scenecut=40 / radl=0 / no-intra-refresh / ctu=64 / min-cu-size=8 / no-rect / no-amp / max-tu-size=32 / tu-inter-depth=1 / tu-intra-depth=1 / limit-tu=0 / rdoq-level=0 / dynamic-rd=0.00 / no-ssim-rd / signhide / no-tskip / nr-intra=0 / nr-inter=0 / no-constrained-intra / strong-intra-smoothing / max-merge=2 / limit-refs=3 / no-limit-modes / me=1 / subme=7 / merange=57 / temporal-mvp / weightp / no-weightb / no-analyze-src-pics / deblock=-3:-3 / sao / no-sao-non-deblock / rd=3 / no-early-skip / rskip / no-fast-intra / no-tskip-fast / no-cu-lossless / no-b-intra / no-splitrd-skip / rdpenalty=0 / psy-rd=2.00 / psy-rdoq=0.00 / no-rd-refine / no-lossless / cbqpoffs=0 / crqpoffs=0 / rc=abr / bitrate=14000 / qcomp=0.60 / qpstep=4 / stats-write=0 / stats-read=0 / ipratio=1.40 / pbratio=1.30 / aq-mode=1 / aq-strength=1.00 / cutree / zone-count=0 / no-strict-cbr / qg-size=32 / no-rc-grain / qpmax=69 / qpmin=0 / no-const-vbv / sar=1 / overscan=0 / videoformat=5 / range=0 / colorprim=9 / transfer=16 / colormatrix=9 / chromaloc=0 / display-window=0 / max-cll=0,0 / min-luma=0 / max-luma=1023 / log2-max-poc-lsb=8 / vui-timing-info / vui-hrd-info / slices=1 / no-opt-qp-pps / no-opt-ref-list-length-pps / no-multi-pass-opt-rps / scenecut-bias=0.05 / no-opt-cu-delta-qp / no-aq-motion / no-hdr / no-hdr-opt / no-dhdr10-opt / no-idr-recovery-sei / analysis-reuse-level=5 / scale-factor=0 / refine-intra=0 / refine-inter=0 / refine-mv=0 / no-limit-sao / ctu-info=0 / no-lowpass-dct / refine-mv-type=0 / copy-pic=1 / max-ausize-factor=1.0 / no-dynamic-refine / no-single-sei
Language : English
Default : Yes
Forced : No
Color range : Limited
Color primaries : BT.2020
Transfer characteristics : PQ
Matrix coefficients : BT.2020 non-constant

Audio
ID : 2
Format : AC-3
Format/Info : Audio Coding 3
Codec ID : A_AC3
Duration : 1 h 57 min
Bit rate mode : Constant
Bit rate : 448 kb/s
Channel(s) : 6 channels
Channel positions : Front: L C R, Side: L R, LFE
Sampling rate : 48.0 kHz
Frame rate : 31.250 FPS (1536 SPF)
Bit depth : 16 bits
Compression mode : Lossy
Stream size : 378 MiB (3%)
Title : | Дублированный |
Language : Russian
Service kind : Complete Main
Default : Yes
Forced : No

Text
ID : 3
Format : UTF-8
Codec ID : S_TEXT/UTF8
Codec ID/Info : UTF-8 Plain Text
Duration : 1 h 56 min
Bit rate : 1 b/s
Count of elements : 36
Stream size : 1.35 KiB (0%)
Title : Forced
Language : Russian
Default : Yes
Forced : Yes

Menu
00:00:00.000 : :Chapter 1
00:13:13.250 : :Chapter 2
00:24:04.234 : :Chapter 3
00:31:57.999 : :Chapter 4
00:39:57.061 : :Chapter 5
00:50:31.069 : :Chapter 6
01:04:49.844 : :Chapter 7
01:13:58.100 : :Chapter 8
01:20:17.395 : :Chapter 9
01:27:41.130 : :Chapter 10
01:38:41.624 : :Chapter 11
01:51:17.420 : :Chapter 12




Скачать Tomb Raider: Лара Крофт через торрент https://d.radikal.ru/d32/1806/1c/b93b8a99aac6.jpg Скачать, смотреть онлайн Tomb Raider: Лара Крофт бесплантно в хорошем качестве Описание: Лара Крофт - весьма самостоятельная дочь эксцентричного искателя приключений, который пропал, едва она стала подростком. Теперь ... 10 10 8
Info! Золотая раздача, скачанное не засчитывается.
Торрент: Зарегистрирован [2018-06-23 12:31] · скачан: 260 раз
Статус: √ проверено
Размер: 11.91 GB
Как cкачать? Как скачать Tomb Raider: Лара Крофт через торрент | UTorrent

% Раздел Тема Автор DL S | L
Фильмы (Blu-ray, BD-Remux, HDDVD) [ 34.23 GB ] Tomb Raider: Лара Крофт / Tomb Raider | Дубляж | 1080p sheker187 Скачать
1 | 0
Фильмы 2018 [DVDrip, WEB-DLRip, HDrip] (DUB, MVO) [ 2.18 GB ] Tomb Raider: Лара Крофт / Tomb Raider | Лицензия | BDRip Twi7ter Скачать
1 | 0
Фильмы 2018 [DVDrip, WEB-DLRip, HDrip] (DUB, MVO) [ 1.46 GB ] Tomb Raider: Лара Крофт / Tomb Raider | Лицензия | BDRip Twi7ter Скачать
1 | 0

28-11-2019 20:33  


Отключить вcю реклaмy на сайте, в т.ч. и в плеере онлайн просмотра!

    Дорогой пользователь! Огромная просьба, поблагодарите релизера, оцените раздачу и оставьте свои комментарий, если Вы скачали Tomb Raider: Лара Крофт через торрент бесплатно!!
    Комментировать посты могут только пользователи прошедшие не сложную регистрацию
    Показать сообщения:    


    Tomb Raider: Лара Крофт через торрент
    Скачать бесплатно Tomb Raider: Лара Крофт
    Tomb Raider: Лара Крофт скачать торрент
    Tomb Raider: Лара Крофт смотреть онлайн
    Cкачать фильм Tomb Raider: Лара Крофт бесплатно
    Tomb Raider: Лара Крофт скачать торрент в хорошем качестве
    Tomb Raider: Лара Крофт смотреть онлайн бесплатно в хорошем качестве
    Вы не можете начинать темы
    Вы не можете отвечать на сообщения
    Вы не можете редактировать свои сообщения
    Вы не можете удалять свои сообщения
    Вы не можете голосовать в опросах
    Вы не можете прикреплять файлы к сообщениям
    Вы можете скачивать файлы
    Tomb Raider: Лара Крофт / Tomb Raider [2018 г., боевик, приключения, UHDRip 2160p, HEVC , Дубляж] смотреть онлайн, скачать торрент picoco.icu