Достать ножи: Стеклянная луковица

MVO

Добыча

Дубляж

Уэнсдэй

1 сезон

Тор

Дубляж

13 клиническая

1 сезон

Жестокая ночь

MVO

Одни из нас

1 сезон

Deluxe

pack

Рекомендуем

30

Пиратка

ВАЖНО

ВАЖНО

Ghostwire

Пиратка

jed

RePack

nioh2

RePack

RDR2

RePack

NEED FOR SPEED™ PAYBACK

RePack

скачать торрент

Кинопоиск HD

Острые козырьки 6 сезон

6 сезон

FAR CRY 6

RePack

скачать торрент

Лицензия

скачать торрент

MVO

1

1 сезон

скачать торрент

1 сезон

скачать торрент

Лицензия

  

Темный рыцарь: Возрождение легенды / The Dark Knight Rises (Кристофер Нолан) [2012, фантастика, боевик, триллер, UHD BDRip 2160p] Дубляж (rus, ukr) + 3xAVO [IMAX]

Темный рыцарь: Возрождение легенды через торрент piratbit.org

Размер: 43.28 GB | Добавлен: 4 года 7 мес. назад | Торрент скачан:97 раз
Смотреть онлайн | Скачать | Поддержите нас   

24-06-2018 02:49 Темный рыцарь: Возрождение легенды Скачать торрент  

Темный рыцарь: Возрождение легенды / The Dark Knight Rises«И разгорится пламя»
Год выпуска: 2012
Страна: Великобритания, США
Жанр: фантастика, боевик, триллер, драма, криминал
Продолжительность: 02:44:32
Перевод: Дублированный, профессиональный одноголосый (авторский)
Субтитры: Русские, английские, украинские
Режиссер: Кристофер Нолан
В ролях:

Кристиан Бэйл (Bruce Wayne), Том Харди (Bane), Энн Хэтэуэй (Selina), Джозеф Гордон-Левитт (Blake), Марион Котийяр (Miranda), Гари Олдман (Commissioner Gordon), Морган Фриман (Fox), Майкл Кейн (Alfred), Мэттью Модайн (Foley), Бен Мендельсон (Daggett), Дэниел Сунджата (Captain Jones), Эйдан Гиллен (CIA Op)
Описание:
Восемь лет назад Бэтмен растворился в ночи, превратившись из героя в беглеца. Приняв на себя вину за смерть прокурора Харви Дента, он пожертвовал всем. Вместе с комиссаром Гордоном они решили, что так будет лучше для всех. Пока преступность была раздавлена антикриминальным актом Дента, ложь действовала.
Рейтинг:

MPAA: PG-13 - Детям до 13 лет просмотр не желателен
Качество: UHD BDRip 2160p
Формат: MKV
Видео: HEVC, HDR, 37.7 Mбит/с, 3840x2160, 23.976 Кадр/с
Аудио #1: Русский / Dolby Digital Audio, 448 кбит / с 5.1 / 48 кГц / 448 кбит / с |Дублированный BluRay 4K|
Аудио #2: Украинский / Dolby Digital Audio, 448 кбит / с 5.1 / 48 кГц / 448 кбит / с |Дублированный BluRay CEE|
Аудио #3: Русский / 48 kHz/24-bit, DTS-HD MA 5.1, ~4074.00 kbps avg |Одноголосый закадровый, Ю.Живов|
Аудио #4: Русский / 48 kHz/24-bit, DTS-HD MA 5.1, ~4052.00 kbps avg |Одноголосый закадровый, Ю.Сербин|
Аудио #5: Русский / 48 kHz/24-bit, DTS-HD MA 5.1, ~4054.00 kbps avg |Одноголосый закадровый, А.Дасевич|
Аудио #6: Русский / 48 kHz/24-bit, DTS-HD MA 5.1, ~3991.00 kbps avg |Дублированный, Дубляж-By vit135|
Аудио #7: Английский / 48 kHz/24-bit, DTS-HD MA 5.1, ~4037 kbps avg | Original
Навигация по главам: есть
Аудио #6: Сделано из оригинальной DTS-HD MA дорожки и дублированной DD CEE дорожки путём замены всех участков с английской речью, отголосками и эхом на аналогичные с дублированной дорожки во всех каналах
Премия канала «MTV», 2013 год
Номинации (5):
Лучший фильм
Лучший злодей (Марион Котийяр)
Лучший злодей (Том Харди)
Лучшее исполнение роли без рубашки (Кристиан Бэйл)
Лучшая драка

Британская академия, 2013 год
Номинации (1):
Лучшие визуальные эффекты

Жорж, 2013 год
Номинации (2):
Лучший зарубежный экшн
Лучшая зарубежная драма

Сатурн, 2013 год
Победитель (1):
Лучшая актриса второго плана (Энн Хэтэуэй)
Номинации (5):
Лучший актер (Кристиан Бэйл)
Лучший актер второго плана (Джозеф Гордон-Левитт)
Лучший режиссер (Кристофер Нолан)
Лучшая музыка
Лучший приключенческий фильм или боевик

Премия Гильдии актеров, 2013 год
Номинации (1):
Лучший каскадерский состав
Complete name : E:\The.Dark.Knight.rises.2012.rerip.2160p.uhd.bluray.x265-SpaceHD13.mkv
Format : Matroska
Format version : Version 4 / Version 2
File size : 43.3 GiB
Duration : 2 h 44 min
Overall bit rate : 37.7 Mb/s
Movie name : The.Dark.Knight.rises.2012.rerip.2160p.uhd.bluray.x265-SpaceHD13
Encoded date : UTC 2018-06-23 14:11:31
Writing application : mkvmerge v22.0.0 ('At The End Of The World') 64-bit
Writing library : libebml v1.3.5 + libmatroska v1.4.8

Video
ID : 1
Format : HEVC
Format/Info : High Efficiency Video Coding
Commercial name : HDR10
Format profile : Main 10@L5.1@High
Codec ID : V_MPEGH/ISO/HEVC
Duration : 2 h 44 min
Bit rate : 16.4 Mb/s
Width : 3 840 pixels
Height : 2 160 pixels
Display aspect ratio : 16:9
Frame rate mode : Constant
Frame rate : 23.976 (24000/1001) FPS
Color space : YUV
Chroma subsampling : 4:2:0 (Type 2)
Bit depth : 10 bits
Bits/(Pixel*Frame) : 0.083
Stream size : 18.9 GiB (44%)
Title : The.Dark.Knight.rises.2012.rerip.2160p.uhd.bluray.x265-SpaceHD13
Writing library : x265 2.6+27-2f3c4158cf35:[Windows][GCC 6.3.0][64 bit] 10bit
Encoding settings : cpuid=1050111 / frame-threads=4 / numa-pools=15,15 / wpp / no-pmode / no-pme / no-psnr / no-ssim / log-level=2 / input-csp=1 / input-res=3840x2160 / interlace=0 / total-frames=236698 / level-idc=51 / high-tier=1 / uhd-bd=1 / ref=4 / no-allow-non-conformance / repeat-headers / annexb / aud / hrd / info / hash=0 / no-temporal-layers / no-open-gop / min-keyint=1 / keyint=24 / gop-lookahead=0 / bframes=4 / b-adapt=2 / b-pyramid / bframe-bias=0 / rc-lookahead=25 / lookahead-slices=4 / scenecut=40 / radl=0 / no-intra-refresh / ctu=64 / min-cu-size=8 / rect / no-amp / max-tu-size=32 / tu-inter-depth=1 / tu-intra-depth=1 / limit-tu=0 / rdoq-level=2 / dynamic-rd=0.00 / no-ssim-rd / signhide / no-tskip / nr-intra=0 / nr-inter=0 / no-constrained-intra / no-strong-intra-smoothing / max-merge=3 / limit-refs=3 / limit-modes / me=3 / subme=3 / merange=57 / temporal-mvp / weightp / no-weightb / no-analyze-src-pics / deblock=-3:-3 / no-sao / no-sao-non-deblock / rd=4 / no-early-skip / rskip / no-fast-intra / no-tskip-fast / no-cu-lossless / no-b-intra / no-splitrd-skip / rdpenalty=0 / psy-rd=2.00 / psy-rdoq=1.00 / no-rd-refine / no-lossless / cbqpoffs=0 / crqpoffs=0 / rc=crf / crf=17.0 / qcomp=0.60 / qpstep=4 / stats-write=0 / stats-read=0 / vbv-maxrate=160000 / vbv-bufsize=160000 / vbv-init=0.9 / crf-max=0.0 / crf-min=0.0 / ipratio=1.40 / pbratio=1.30 / aq-mode=1 / aq-strength=1.00 / cutree / zone-count=0 / no-strict-cbr / qg-size=32 / no-rc-grain / qpmax=69 / qpmin=0 / no-const-vbv / sar=1 / overscan=0 / videoformat=5 / range=0 / colorprim=9 / transfer=16 / colormatrix=9 / chromaloc=1 / chromaloc-top=2 / chromaloc-bottom=2 / display-window=0 / master-display=G(13250,34500)B(7500,3000)R(34000,16000)WP(15635,16450)L(40000000,50) / max-cll=500,200 / min-luma=0 / max-luma=1023 / log2-max-poc-lsb=8 / vui-timing-info / vui-hrd-info / slices=1 / no-opt-qp-pps / no-opt-ref-list-length-pps / no-multi-pass-opt-rps / scenecut-bias=0.05 / no-opt-cu-delta-qp / no-aq-motion / hdr / hdr-opt / no-dhdr10-opt / analysis-save=(null) / analysis-load=(null) / analysis-reuse-level=5 / scale-factor=0 / refine-intra=0 / refine-inter=0 / refine-mv=0 / no-limit-sao / ctu-info=0 / no-lowpass-dct / refine-mv-type=0 / copy-pic=1
Default : Yes
Forced : No
Color range : Limited
Color primaries : BT.2020
Transfer characteristics : PQ
Matrix coefficients : BT.2020 non-constant
Mastering display color pri : Display P3
Mastering display luminance : min: 0.0050 cd/m2, max: 4000 cd/m2
Maximum Content Light Level : 500 cd/m2
Maximum Frame-Average Light : 200 cd/m2

Audio #1
ID : 2
Format : AC-3
Format/Info : Audio Coding 3
Codec ID : A_AC3
Duration : 2 h 44 min
Bit rate mode : Constant
Bit rate : 448 kb/s
Channel(s) : 6 channels
Channel positions : Front: L C R, Side: L R, LFE
Sampling rate : 48.0 kHz
Frame rate : 31.250 FPS (1536 SPF)
Bit depth : 16 bits
Compression mode : Lossy
Stream size : 527 MiB (1%)
Title : The.Dark.Knight.rises.2012.rerip.2160p.uhd.bluray.x265-SpaceHD13[BluRay 4K]
Language : Russian
Service kind : Complete Main
Default : Yes
Forced : Yes

Audio #2
ID : 3
Format : AC-3
Format/Info : Audio Coding 3
Codec ID : A_AC3
Duration : 2 h 44 min
Bit rate mode : Constant
Bit rate : 448 kb/s
Channel(s) : 6 channels
Channel positions : Front: L C R, Side: L R, LFE
Sampling rate : 48.0 kHz
Frame rate : 31.250 FPS (1536 SPF)
Bit depth : 16 bits
Compression mode : Lossy
Stream size : 527 MiB (1%)
Title : The.Dark.Knight.rises.2012.rerip.2160p.uhd.bluray.x265-SpaceHD13[BluRay CEE]
Language : Ukrainian
Service kind : Complete Main
Default : No
Forced : No

Audio #3
ID : 4
Format : DTS
Format/Info : Digital Theater Systems
Format profile : MA / Core
Codec ID : A_DTS
Duration : 2 h 44 min
Bit rate mode : Variable / Constant
Bit rate : 3 991 kb/s / 1 509 kb/s
Channel(s) : 6 channels
Channel positions : Front: L C R, Side: L R, LFE
Sampling rate : 48.0 kHz
Frame rate : 93.750 FPS (512 SPF)
Bit depth : 24 bits
Compression mode : Lossless / Lossy
Stream size : 4.59 GiB (11%)
Title : The.Dark.Knight.rises.2012.rerip.2160p.uhd.bluray.x265-SpaceHD13[Дубляж-By vit135]
Language : Russian
Default : No
Forced : No

Audio #4
ID : 5
Format : DTS
Format/Info : Digital Theater Systems
Format profile : MA / Core
Codec ID : A_DTS
Duration : 2 h 44 min
Bit rate mode : Variable / Constant
Bit rate : 4 073 kb/s / 1 509 kb/s
Channel(s) : 6 channels
Channel positions : Front: L C R, Side: L R, LFE
Sampling rate : 48.0 kHz
Frame rate : 93.750 FPS (512 SPF)
Bit depth : 24 bits
Compression mode : Lossless / Lossy
Stream size : 4.68 GiB (11%)
Title : The.Dark.Knight.rises.2012.rerip.2160p.uhd.bluray.x265-SpaceHD13[Живов]
Language : Russian
Default : No
Forced : No

Audio #5
ID : 6
Format : DTS
Format/Info : Digital Theater Systems
Format profile : MA / Core
Codec ID : A_DTS
Duration : 2 h 44 min
Bit rate mode : Variable / Constant
Bit rate : 4 052 kb/s / 1 509 kb/s
Channel(s) : 6 channels
Channel positions : Front: L C R, Side: L R, LFE
Sampling rate : 48.0 kHz
Frame rate : 93.750 FPS (512 SPF)
Bit depth : 24 bits
Compression mode : Lossless / Lossy
Stream size : 4.66 GiB (11%)
Title : The.Dark.Knight.rises.2012.rerip.2160p.uhd.bluray.x265-SpaceHD13[Сербин]
Language : Russian
Default : No
Forced : No

Audio #6
ID : 7
Format : DTS
Format/Info : Digital Theater Systems
Format profile : MA / Core
Codec ID : A_DTS
Duration : 2 h 44 min
Bit rate mode : Variable / Constant
Bit rate : 4 054 kb/s / 1 509 kb/s
Channel(s) : 6 channels
Channel positions : Front: L C R, Side: L R, LFE
Sampling rate : 48.0 kHz
Frame rate : 93.750 FPS (512 SPF)
Bit depth : 24 bits
Compression mode : Lossless / Lossy
Stream size : 4.66 GiB (11%)
Title : The.Dark.Knight.rises.2012.rerip.2160p.uhd.bluray.x265-SpaceHD13[Александр Дасевич]
Language : Russian
Default : No
Forced : No

Audio #7
ID : 8
Format : DTS
Format/Info : Digital Theater Systems
Format profile : MA / Core
Codec ID : A_DTS
Duration : 2 h 44 min
Bit rate mode : Variable / Constant
Bit rate : 4 037 kb/s / 1 509 kb/s
Channel(s) : 6 channels
Channel positions : Front: L C R, Side: L R, LFE
Sampling rate : 48.0 kHz
Frame rate : 93.750 FPS (512 SPF)
Bit depth : 24 bits
Compression mode : Lossless / Lossy
Stream size : 4.64 GiB (11%)
Title : The.Dark.Knight.rises.2012.rerip.2160p.uhd.bluray.x265-SpaceHD13
Language : English
Default : No
Forced : No

Text #1
ID : 9
Format : PGS
Muxing mode : zlib
Codec ID : S_HDMV/PGS
Codec ID/Info : Picture based subtitle format used on BDs/HD-DVDs
Duration : 1 h 56 min
Bit rate : 513 b/s
Count of elements : 26
Stream size : 439 KiB (0%)
Title : Forced
Language : Russian
Default : No
Forced : No

Text #2
ID : 10
Format : PGS
Muxing mode : zlib
Codec ID : S_HDMV/PGS
Codec ID/Info : Picture based subtitle format used on BDs/HD-DVDs
Duration : 2 h 43 min
Bit rate : 36.4 kb/s
Count of elements : 3694
Stream size : 42.6 MiB (0%)
Title : BD CEE
Language : Russian
Default : Yes
Forced : No

Text #3
ID : 11
Format : PGS
Muxing mode : zlib
Codec ID : S_HDMV/PGS
Codec ID/Info : Picture based subtitle format used on BDs/HD-DVDs
Duration : 2 h 43 min
Bit rate : 36.4 kb/s
Count of elements : 3692
Stream size : 42.5 MiB (0%)
Title : Full
Language : Russian
Default : No
Forced : No

Text #4
ID : 12
Format : PGS
Muxing mode : zlib
Codec ID : S_HDMV/PGS
Codec ID/Info : Picture based subtitle format used on BDs/HD-DVDs
Duration : 2 h 34 min
Bit rate : 52.8 kb/s
Count of elements : 3376
Stream size : 58.3 MiB (0%)
Title : Нотабеноид
Language : Russian
Default : No
Forced : No

Text #5
ID : 13
Format : PGS
Muxing mode : zlib
Codec ID : S_HDMV/PGS
Codec ID/Info : Picture based subtitle format used on BDs/HD-DVDs
Duration : 2 h 36 min
Bit rate : 53.9 kb/s
Count of elements : 3716
Stream size : 60.2 MiB (0%)
Title : Воронин Full
Language : Russian
Default : No
Forced : No

Text #6
ID : 14
Format : PGS
Muxing mode : zlib
Codec ID : S_HDMV/PGS
Codec ID/Info : Picture based subtitle format used on BDs/HD-DVDs
Duration : 2 h 36 min
Bit rate : 58.9 kb/s
Count of elements : 3962
Stream size : 65.7 MiB (0%)
Title : Воронин SDH
Language : Russian
Default : No
Forced : No

Text #7
ID : 15
Format : PGS
Muxing mode : zlib
Codec ID : S_HDMV/PGS
Codec ID/Info : Picture based subtitle format used on BDs/HD-DVDs
Duration : 1 h 46 min
Bit rate : 555 b/s
Count of elements : 24
Stream size : 435 KiB (0%)
Title : Forced
Language : Ukrainian
Default : No
Forced : No

Text #8
ID : 16
Format : PGS
Muxing mode : zlib
Codec ID : S_HDMV/PGS
Codec ID/Info : Picture based subtitle format used on BDs/HD-DVDs
Duration : 2 h 43 min
Bit rate : 34.2 kb/s
Count of elements : 3826
Stream size : 40.0 MiB (0%)
Title : English SDH
Language : English
Default : No
Forced : No

Menu
00:00:00.000 : en:00:00:00.000
00:09:02.792 : en:00:09:02.792
00:19:08.481 : en:00:19:08.481
00:30:15.814 : en:00:30:15.814
00:41:08.758 : en:00:41:08.758
00:51:09.483 : en:00:51:09.483
01:00:29.626 : en:01:00:29.626
01:10:03.991 : en:01:10:03.991
01:20:13.434 : en:01:20:13.434
01:31:00.538 : en:01:31:00.538
01:39:24.250 : en:01:39:24.250
01:48:58.449 : en:01:48:58.449
02:00:21.548 : en:02:00:21.548
02:10:47.631 : en:02:10:47.631
02:19:12.594 : en:02:19:12.594
02:30:14.589 : en:02:30:14.589
02:36:50.526 : en:02:36:50.526



Скачать Темный рыцарь: Возрождение легенды через торрент https://c.radikal.ru/c14/1806/db/9b014c58b3ec.jpg Скачать, смотреть онлайн Темный рыцарь: Возрождение легенды бесплантно в хорошем качестве Описание: Восемь лет назад Бэтмен растворился в ночи, превратившись из героя в беглеца. Приняв на себя вину за смерть прокурора Харви ... 10 10 2
Info! Золотая раздача, скачанное не засчитывается.
Торрент: Зарегистрирован [2018-06-24 02:49] · скачан: 97 раз
Статус: √ проверено
Размер: 43.28 GB
Как cкачать? Как скачать Темный рыцарь: Возрождение легенды через торрент | UTorrent

% Раздел Тема Автор DL S | L
Ultra HD (UHD: 2K, 4K, 8K) [ 85.07 GB ] Темный рыцарь: Возрождение легенды / The Dark Knight Rises | DUB | 2160p bober100 Скачать
1 | 0

28-11-2019 20:33  


Отключить вcю реклaмy на сайте, в т.ч. и в плеере онлайн просмотра!

    Дорогой пользователь! Огромная просьба, поблагодарите релизера, оцените раздачу и оставьте свои комментарий, если Вы скачали Темный рыцарь: Возрождение легенды через торрент бесплатно!!
    Комментировать посты могут только пользователи прошедшие не сложную регистрацию
    Показать сообщения:    


    Темный рыцарь: Возрождение легенды через торрент
    Скачать бесплатно Темный рыцарь: Возрождение легенды
    Темный рыцарь: Возрождение легенды скачать торрент
    Темный рыцарь: Возрождение легенды смотреть онлайн
    Cкачать фильм Темный рыцарь: Возрождение легенды бесплатно
    Темный рыцарь: Возрождение легенды скачать торрент в хорошем качестве
    Темный рыцарь: Возрождение легенды смотреть онлайн бесплатно в хорошем качестве
    Вы не можете начинать темы
    Вы не можете отвечать на сообщения
    Вы не можете редактировать свои сообщения
    Вы не можете удалять свои сообщения
    Вы не можете голосовать в опросах
    Вы не можете прикреплять файлы к сообщениям
    Вы можете скачивать файлы
    Темный рыцарь: Возрождение легенды / The Dark Knight Rises [2012, фантастика, боевик, триллер, UHD BDRip 2160p] Дубляж + 3xAVO [IMAX] смотреть онлайн, скачать торрент picoco.icu