Доктор Стрэндж

Лицензия

Добыча

MVO

Дом дракона

1 сезон

Тор

Лицензия

Мэверик

Лицензия

Там, где раки поют

MVO

Властелин колец

1 сезон

Ultimate

pack

Рекомендуем

30

Repack

ВАЖНО

ВАЖНО

Ghostwire

RePack

jed

RePack

nioh2

RePack

RDR2

RePack

NEED FOR SPEED™ PAYBACK

RePack

скачать торрент

Кинопоиск HD

Острые козырьки 6 сезон

6 сезон

FAR CRY 6

RePack

скачать торрент

Лицензия

скачать торрент

MVO

1

1 сезон

скачать торрент

1 сезон

скачать торрент

Лицензия

  

Загон (Игорь Гостев) [1988 г., криминал, детектив, SATRip-AVC, Не требуется Русский]

Загон через торрент piratbit.org

Размер: 1.84 GB | Добавлен: 4 года 3 мес. назад | Торрент скачан:4 раза
Смотреть онлайн | Скачать   

24-06-2018 19:01 Загон Скачать торрент  

Загон
Год выпуска: 1988
Страна: СССР, Сирия
Жанр: криминал, детектив
Продолжительность: 01:33:01
Перевод: Не требуется Русский
Субтитры: Отсутствуют

Режиссер: Игорь Гостев

rating

В ролях: Гражина Шаполовская, Леонид Филатов, Ассад Фуддах, Талхат Хамди, Донатас Банионис, Георгий Жжёнов, Юозас Будрайтис, Леонид Куравлёв, Софико Чиаурели, Бимболат (Бибо) Ватаев, Владислав Стржельчик, Владимир Самойлов, Мамдух Аль-Атраш, Хани Шахин, Абу Ганем, Адель Аль-Хадад, Александр Сайко, Лев Поляков, Борис Токарев, Алексей Писклов, Александр Писклов, Владимир Епископосян, Ирина Шевчук, Артем Карапетян, Гурген Тонунц, Алена Хмельницкая

Описание: В одной из развивающихся арабских стран советскими специалистами-геологами открыто месторождение ценнейших танталовых руд. Страна сразу же попадает в сферу жизненно важных интересов США. Её президент Мухаммед является слабым политиком. Под влиянием американского посла и в надежде на всестороннюю помощь со стороны США он разрывает отношения с Советским Союзом. Но, понимая, что строптивый президент поддался влиянию только под нажимом, американская разведка считает его слишком ненадёжной политической фигурой, которую необходимо срочно заменить. При помощи руководителей местных силовых ведомств американцы разрабатывают операцию по физическому устранению неугодного президента. На него и его семью устроена «охота» — и «будучи загнанным», президент Мухаммед становится жертвой политического убийства

Качество: SATRip-AVC
Формат: MKV
Видео кодек: AVC
Аудио кодек: AC3
Видео: Видео: AVC, 698x572 , 25.0fps, 2584 Kbps
Аудио#1: AC3 , 2 ch , 48 kHz , 192 kbps
Общее
Уникальный идентификатор : 175445217639112311704438352318921948248 (0x83FD8513417C2D8B8DE2486A1F2FBC58)
Полное имя : D:Загон_1987-SATRip-AVC_.mkv
Формат : Matroska
Версия формата : Version 2
Размер файла : 1,84 Гбайт
Продолжительность : 1 ч. 33 м.
Общий поток : 2832 Кбит/сек
Название фильма : Загон_1987-SATRip-AVC_KORSAR.mkv
Дата кодирования : UTC 2017-10-11 17:54:38
Программа кодирования : mkvmerge v5.8.0 ('No Sleep / Pillow') built on Sep 2 2012 15:37:04
Библиотека кодирования : libebml v1.2.3 + libmatroska v1.3.0

Видео
Идентификатор : 1
Формат : AVC
Формат/Информация : Advanced Video Codec
Профиль формата : High@L4.1
Параметр CABAC формата : Да
Параметр ReFrames формата : 14 кадров
Идентификатор кодека : V_MPEG4/ISO/AVC
Продолжительность : 1 ч. 33 м.
Битрейт : 2584 Кбит/сек
Ширина : 698 пикселей
Высота : 572 пикселя
Соотношение сторон : 4:3
Соотношение сторон в оригинале : 4:3
Режим частоты кадров : Постоянный
Частота кадров : 25,000 кадров/сек
Цветовое пространство : YUV
Субдискретизация насыщенности : 4:2:0
Битовая глубина : 8 бит
Тип развёртки : Прогрессивная
Бит/(Пиксели*Кадры) : 0.259
Размер потока : 1,68 Гбайт (91%)
Библиотека кодирования : x264 core 148 r2744kMod b97ae06
Настройки программы : cabac=1 / ref=14 / deblock=1:-2:-1 / analyse=0x3:0x133 / me=umh / subme=10 / psy=1 / fade_compensate=0.00 / psy_rd=1.05:0.10 / mixed_ref=1 / me_range=32 / chroma_me=1 / trellis=2 / 8x8dct=1 / cqm=0 / deadzone=21,11 / fast_pskip=1 / chroma_qp_offset=-3 / threads=12 / lookahead_threads=3 / sliced_threads=0 / nr=0 / decimate=1 / interlaced=0 / bluray_compat=0 / constrained_intra=0 / bframes=10 / b_pyramid=2 / b_adapt=2 / b_bias=0 / direct=1 / weightb=1 / open_gop=0 / weightp=2 / keyint=250 / keyint_min=25 / scenecut=40 / intra_refresh=0 / rc=crf / mbtree=0 / crf=18.0000 / qcomp=0.63 / qpmin=0 / qpmax=39 / qpstep=4 / ip_ratio=1.40 / pb_ratio=1.30 / aq=1:1.00
Язык : English
Default : Да
Forced : Нет
Основные цвета : BT.601 PAL
Характеристики трансфера : BT.470 System B, BT.470 System G
Коэффициенты матрицы : BT.601

Аудио
Идентификатор : 2
Формат : AC-3
Формат/Информация : Audio Coding 3
Расширение режима : CM (complete main)
Параметр Endianness формата : Big
Идентификатор кодека : A_AC3
Продолжительность : 1 ч. 33 м.
Вид битрейта : Постоянный
Битрейт : 192 Кбит/сек
Каналы : 2 канала
Расположение каналов : Front: L R
Частота : 48,0 КГц
Битовая глубина : 16 бит
Метод сжатия : С потерями
Размер потока : 128 Мбайт (7%)
Язык : Russian
Default : Да
Forced : Нет




Скачать Загон через торрент https://d.radikal.ru/d28/1806/59/667070651d31.png Скачать, смотреть онлайн Загон бесплантно в хорошем качестве Описание: В одной из развивающихся арабских стран советскими специалистами-геологами открыто месторождение ценнейших танталовых руд. Страна ... 10 10 2
Торрент: Зарегистрирован [2018-06-24 19:01] · скачан: 4 раз
Статус: √ проверено
Размер: 1.84 GB
Как cкачать? Как скачать Загон через торрент | UTorrent

28-11-2019 20:33  


Отключить вcю реклaмy на сайте, в т.ч. и в плеере онлайн просмотра!

24-06-2018 19:07 Загон Скачать торрент  

Топик был перенесен из форума Оформление раздач (Кино, Видео и ТВ) в форум Кино СССР


-Lexx-



    Дорогой пользователь! Огромная просьба, поблагодарите релизера, оцените раздачу и оставьте свои комментарий, если Вы скачали Загон через торрент бесплатно!!
    Комментировать посты могут только пользователи прошедшие не сложную регистрацию
    Показать сообщения:    


    Загон через торрент
    Скачать бесплатно Загон
    Загон скачать торрент
    Загон смотреть онлайн
    Cкачать фильм Загон бесплатно
    Загон скачать торрент в хорошем качестве
    Загон смотреть онлайн бесплатно в хорошем качестве
    Вы не можете начинать темы
    Вы не можете отвечать на сообщения
    Вы не можете редактировать свои сообщения
    Вы не можете удалять свои сообщения
    Вы не можете голосовать в опросах
    Вы не можете прикреплять файлы к сообщениям
    Вы можете скачивать файлы