Достать ножи: Стеклянная луковица

MVO

Добыча

Дубляж

Уэнсдэй

1 сезон

Тор

Дубляж

13 клиническая

1 сезон

Жестокая ночь

MVO

Одни из нас

1 сезон

Deluxe

pack

Рекомендуем

30

Пиратка

ВАЖНО

ВАЖНО

Ghostwire

Пиратка

jed

RePack

nioh2

RePack

RDR2

RePack

NEED FOR SPEED™ PAYBACK

RePack

скачать торрент

Кинопоиск HD

Острые козырьки 6 сезон

6 сезон

FAR CRY 6

RePack

скачать торрент

Лицензия

скачать торрент

MVO

1

1 сезон

скачать торрент

1 сезон

скачать торрент

Лицензия

  

Джек Ричер / Jack Reacher (Кристофер МакКуорри) [2012, боевик, триллер, детектив, UHD BDRemux 2160p] Дубляж + 5xAVO

Джек Ричер через торрент piratbit.org

Размер: 67.68 GB | Добавлен: 4 года 7 мес. назад | Торрент скачан:59 раз
Смотреть онлайн | Скачать | Поддержите нас   

27-06-2018 18:46 Джек Ричер Скачать торрент  

Джек Ричер / Jack Reacher«У закона есть пределы. У него их нет»
Год выпуска: 2012
Страна: США
Жанр: боевик, триллер, детектив, криминал
Продолжительность: 02:10:24
Перевод: Дублированный, авторский
Субтитры: Русские, английские, украинские
Режиссер: Кристофер МакКуорри
В ролях:

Том Круз (Reacher), Розамунд Пайк (Helen), Джай Кортни (Charlie), Дэвид Ойелоуо (Emerson), Ричард Дженкинс (Rodin), Роберт Дювалл (Cash), Вернер Херцог (The Zec), Джозеф Сикора (Barr), Майкл Рэймонд-Джеймс (Linsky), Алексия Фаст (Sandy), Владимир Сизов (Vlad), Джош Хелман (Jeb)
Описание:
Снайпер убивает нескольких случайных прохожих. Его находят и арестовывают. Все улики указывают на него. На допросе вместо признания он пишет имя - Джек Ричер. Больше обвиняемый не может ничего сказать, поскольку после избиения заключёнными впадает в кому. Загадочный Джек Ричер появляется незамедлительно. Что теперь будет с убийцей?
Рейтинг:

MPAA: PG-13 - Детям до 13 лет просмотр не желателен
Качество: UHD BDRemux 2160p
Формат: MKV
Видео: MPEG-H HEVC HDR Video, 3840x2160, 44.9 Mbit/s, 23.976 fps
Аудио 1 : AC3 Dolby Digital 5.1 / 48 kHz / 640 kbps / 16-bit | Дубляж
Аудио 2 : DTS-HD Master Audio Russian 5.1 / 48 kHz / 3396 kbps / 24-bit | Дубляж
Аудио 3 : DTS-HD Master Audio Russian 7.1 / 48 kHz / 4173 kbps / 24-bit | Юрий Сербин
Аудио 4 : DTS-HD Master Audio Russian 7.1 / 48 kHz / 4220 kbps / 24-bit | Леонид Володарский
Аудио 5 : DTS-HD Master Audio Russian 7.1 / 48 kHz / 4214 kbps / 24-bit | Василий Горчаков
Аудио 6 : DTS-HD Master Audio Russian 7.1 / 48 kHz / 4173 kbps / 24-bit | Юрий Живов
Аудио 7 : DTS-HD Master Audio Russian 7.1 / 48 kHz / 4232 kbps / 24-bit | Юрий Немахов
Аудио 8 : DTS-HD Master Audio Russian 7.1 / 48 kHz / 4176 kbps / 24-bit | Оригинал
Навигация по главам: есть
• Дорожки с переводом Сербина, Володарского, Немахова и Горчакова получены с использованием чистых голосов.
• При подготовке дорожки с переводом Живова использован выделенный голос.
• За перевод Володарского большое спасибо пользователям форума hdtracker.
• За перевод Сербина и Немахова спасибо е180.
• Перевод Горчаков - совместные проект e180 и hdtracker.
• За дубляж в DTS-HD спасибо - HDClub
• Дорожка с Володарским собрана Nadoelo заново с голоса. Володарский выровнен по громкости и подогнан пофразово. Поэтому слушается как совсем другой перевод.
General
Unique ID : 305571402059620267175128934972506617206 (0xE5E2E94D6A1C31F09DA13C9D259DB576)
Complete name : D:Video111Jack.Reacher.2012.BDREMUX.2160p.4K.UHD.HEVC.HDR.ExKinoRay.mkv
Format : Matroska
Format version : Version 4 / Version 2
File size : 67.7 GiB
Duration : 2 h 10 min
Overall bit rate : 74.3 Mb/s
Movie name : Jack Reacher 2012 from ExKinoRay
Encoded date : UTC 2018-06-27 16:53:45
Writing application : mkvmerge v23.0.0 ('The Bride Said No') 64-bit
Writing library : libebml v1.3.6 + libmatroska v1.4.9

Video
ID : 1
Format : HEVC
Format/Info : High Efficiency Video Coding
Commercial name : HDR10
Format profile : Main 10@L5.1@High
Codec ID : V_MPEGH/ISO/HEVC
Duration : 2 h 10 min
Bit rate : 44.9 Mb/s
Width : 3 840 pixels
Height : 2 160 pixels
Display aspect ratio : 16:9
Frame rate mode : Constant
Frame rate : 23.976 (24000/1001) FPS
Color space : YUV
Chroma subsampling : 4:2:0 (Type 2)
Bit depth : 10 bits
Bits/(Pixel*Frame) : 0.226
Stream size : 40.9 GiB (60%)
Language : English
Default : Yes
Forced : No
Color range : Limited
Color primaries : BT.2020
Transfer characteristics : PQ
Matrix coefficients : BT.2020 non-constant
Mastering display color pri : Display P3
Mastering display luminance : min: 0.0001 cd/m2, max: 1000 cd/m2

Audio #1
ID : 2
Format : AC-3
Format/Info : Audio Coding 3
Codec ID : A_AC3
Duration : 2 h 10 min
Bit rate mode : Constant
Bit rate : 640 kb/s
Channel(s) : 6 channels
Channel positions : Front: L C R, Side: L R, LFE
Sampling rate : 48.0 kHz
Frame rate : 31.250 FPS (1536 SPF)
Bit depth : 16 bits
Compression mode : Lossy
Stream size : 597 MiB (1%)
Title : Дубляж
Language : Russian
Service kind : Complete Main
Default : Yes
Forced : Yes

Audio #2
ID : 3
Format : DTS
Format/Info : Digital Theater Systems
Format profile : MA / Core
Codec ID : A_DTS
Duration : 2 h 10 min
Bit rate mode : Variable / Constant
Bit rate : 3 396 kb/s / 1 509 kb/s
Channel(s) : 6 channels
Channel positions : Front: L C R, Side: L R, LFE
Sampling rate : 48.0 kHz
Frame rate : 93.750 FPS (512 SPF)
Bit depth : 24 bits
Compression mode : Lossless / Lossy
Stream size : 3.09 GiB (5%)
Title : Дубляж
Language : Russian
Default : No
Forced : No

Audio #3
ID : 4
Format : DTS
Format/Info : Digital Theater Systems
Format profile : MA / Core
Codec ID : A_DTS
Duration : 2 h 10 min
Bit rate mode : Variable / Constant
Bit rate : 4 239 kb/s / 1 509 kb/s
Channel(s) : 8 channels / 6 channels
Channel positions : Front: L C R, Side: L R, Back: L R, LFE / Front: L C R, Side: L R, LFE
Sampling rate : 48.0 kHz
Frame rate : 93.750 FPS (512 SPF)
Bit depth : 24 bits
Compression mode : Lossless / Lossy
Stream size : 3.86 GiB (6%)
Title : Юрий Сербин
Language : Russian
Default : No
Forced : No

Audio #4
ID : 5
Format : DTS
Format/Info : Digital Theater Systems
Format profile : MA / Core
Codec ID : A_DTS
Duration : 2 h 10 min
Bit rate mode : Variable / Constant
Bit rate : 4 220 kb/s / 1 509 kb/s
Channel(s) : 8 channels / 6 channels
Channel positions : Front: L C R, Side: L R, Back: L R, LFE / Front: L C R, Side: L R, LFE
Sampling rate : 48.0 kHz
Frame rate : 93.750 FPS (512 SPF)
Bit depth : 24 bits
Compression mode : Lossless / Lossy
Stream size : 3.84 GiB (6%)
Title : Леонид Володарский
Language : Russian
Default : No
Forced : No

Audio #5
ID : 6
Format : DTS
Format/Info : Digital Theater Systems
Format profile : MA / Core
Codec ID : A_DTS
Duration : 2 h 10 min
Bit rate mode : Variable / Constant
Bit rate : 4 214 kb/s / 1 509 kb/s
Channel(s) : 8 channels / 6 channels
Channel positions : Front: L C R, Side: L R, Back: L R, LFE / Front: L C R, Side: L R, LFE
Sampling rate : 48.0 kHz
Frame rate : 93.750 FPS (512 SPF)
Bit depth : 24 bits
Compression mode : Lossless / Lossy
Stream size : 3.84 GiB (6%)
Title : Василий Горчаков
Language : Russian
Default : No
Forced : No

Audio #6
ID : 7
Format : DTS
Format/Info : Digital Theater Systems
Format profile : MA / Core
Codec ID : A_DTS
Duration : 2 h 10 min
Bit rate mode : Variable / Constant
Bit rate : 4 231 kb/s / 1 509 kb/s
Channel(s) : 8 channels / 6 channels
Channel positions : Front: L C R, Side: L R, Back: L R, LFE / Front: L C R, Side: L R, LFE
Sampling rate : 48.0 kHz
Frame rate : 93.750 FPS (512 SPF)
Bit depth : 24 bits
Compression mode : Lossless / Lossy
Stream size : 3.85 GiB (6%)
Title : Юрий Живов
Language : Russian
Default : No
Forced : No

Audio #7
ID : 8
Format : DTS
Format/Info : Digital Theater Systems
Format profile : MA / Core
Codec ID : A_DTS
Duration : 2 h 10 min
Bit rate mode : Variable / Constant
Bit rate : 4 227 kb/s / 1 509 kb/s
Channel(s) : 8 channels / 6 channels
Channel positions : Front: L C R, Side: L R, Back: L R, LFE / Front: L C R, Side: L R, LFE
Sampling rate : 48.0 kHz
Frame rate : 93.750 FPS (512 SPF)
Bit depth : 24 bits
Compression mode : Lossless / Lossy
Stream size : 3.85 GiB (6%)
Title : Юрий Немахов
Language : Russian
Default : No
Forced : No

Audio #8
ID : 9
Format : DTS
Format/Info : Digital Theater Systems
Format profile : MA / Core
Codec ID : A_DTS
Duration : 2 h 10 min
Bit rate mode : Variable / Constant
Bit rate : 4 176 kb/s / 1 509 kb/s
Channel(s) : 8 channels / 6 channels
Channel positions : Front: L C R, Side: L R, Back: L R, LFE / Front: L C R, Side: L R, LFE
Sampling rate : 48.0 kHz
Frame rate : 93.750 FPS (512 SPF)
Bit depth : 24 bits
Compression mode : Lossless / Lossy
Stream size : 3.80 GiB (6%)
Title : Original
Language : English
Default : No
Forced : No

Text #1
ID : 10
Format : UTF-8
Codec ID : S_TEXT/UTF8
Codec ID/Info : UTF-8 Plain Text
Duration : 1 h 50 min
Bit rate : 0 b/s
Count of elements : 10
Stream size : 351 Bytes (0%)
Title : Forced
Language : Russian
Default : Yes
Forced : Yes

Text #2
ID : 11
Format : UTF-8
Codec ID : S_TEXT/UTF8
Codec ID/Info : UTF-8 Plain Text
Duration : 2 h 2 min
Bit rate : 74 b/s
Count of elements : 1317
Stream size : 66.1 KiB (0%)
Title : R5
Language : Russian
Default : No
Forced : No

Text #3
ID : 12
Format : UTF-8
Codec ID : S_TEXT/UTF8
Codec ID/Info : UTF-8 Plain Text
Duration : 1 h 44 min
Bit rate : 0 b/s
Count of elements : 8
Stream size : 298 Bytes (0%)
Title : Forced
Language : Ukrainian
Default : No
Forced : No

Text #4
ID : 13
Format : UTF-8
Codec ID : S_TEXT/UTF8
Codec ID/Info : UTF-8 Plain Text
Duration : 2 h 2 min
Bit rate : 91 b/s
Count of elements : 1456
Stream size : 81.8 KiB (0%)
Language : Ukrainian
Default : No
Forced : No

Text #5
ID : 14
Format : UTF-8
Codec ID : S_TEXT/UTF8
Codec ID/Info : UTF-8 Plain Text
Duration : 2 h 4 min
Bit rate : 53 b/s
Count of elements : 1445
Stream size : 48.9 KiB (0%)
Language : English
Default : No
Forced : No

Text #6
ID : 15
Format : UTF-8
Codec ID : S_TEXT/UTF8
Codec ID/Info : UTF-8 Plain Text
Duration : 2 h 7 min
Bit rate : 54 b/s
Count of elements : 1532
Stream size : 50.6 KiB (0%)
Title : SDH
Language : English
Default : No
Forced : No

Text #7
ID : 16
Format : UTF-8
Codec ID : S_TEXT/UTF8
Codec ID/Info : UTF-8 Plain Text
Duration : 2 h 2 min
Bit rate : 60 b/s
Count of elements : 1531
Stream size : 54.8 KiB (0%)
Title : SDH-COLORED
Language : English
Default : No
Forced : No

Menu
00:00:00.000 : en:Chapter 1
00:08:21.668 : en:Chapter 2
00:14:19.901 : en:Chapter 3
00:21:51.685 : en:Chapter 4
00:30:02.342 : en:Chapter 5
00:35:46.478 : en:Chapter 6
00:41:22.980 : en:Chapter 7
00:49:08.112 : en:Chapter 8
00:55:36.291 : en:Chapter 9
01:01:44.117 : en:Chapter 10
01:08:11.296 : en:Chapter 11
01:16:56.320 : en:Chapter 12
01:23:51.526 : en:Chapter 13
01:30:20.165 : en:Chapter 14
01:38:01.584 : en:Chapter 15
01:45:08.928 : en:Chapter 16
01:53:39.312 : en:Chapter 17
02:01:50.470 : en:Chapter 18



Скачать Джек Ричер через торрент https://c.radikal.ru/c33/1806/c4/cd3e2cd6139d.jpg Скачать, смотреть онлайн Джек Ричер бесплантно в хорошем качестве Описание: Снайпер убивает нескольких случайных прохожих. Его находят и арестовывают. Все улики указывают на него. На допросе вместо ... 10 10 4
Info! Золотая раздача, скачанное не засчитывается.
Торрент: Зарегистрирован [2018-06-27 18:46] · скачан: 59 раз
Статус: √ проверено
Размер: 67.68 GB
Как cкачать? Как скачать Джек Ричер через торрент | UTorrent

28-11-2019 20:33  


Отключить вcю реклaмy на сайте, в т.ч. и в плеере онлайн просмотра!

    Дорогой пользователь! Огромная просьба, поблагодарите релизера, оцените раздачу и оставьте свои комментарий, если Вы скачали Джек Ричер через торрент бесплатно!!
    Комментировать посты могут только пользователи прошедшие не сложную регистрацию
    Показать сообщения:    


    Джек Ричер через торрент
    Скачать бесплатно Джек Ричер
    Джек Ричер скачать торрент
    Джек Ричер смотреть онлайн
    Cкачать фильм Джек Ричер бесплатно
    Джек Ричер скачать торрент в хорошем качестве
    Джек Ричер смотреть онлайн бесплатно в хорошем качестве
    Вы не можете начинать темы
    Вы не можете отвечать на сообщения
    Вы не можете редактировать свои сообщения
    Вы не можете удалять свои сообщения
    Вы не можете голосовать в опросах
    Вы не можете прикреплять файлы к сообщениям
    Вы можете скачивать файлы
    Джек Ричер / Jack Reacher [2012, боевик, триллер, детектив, UHD BDRemux 2160p] Дубляж + 5xAVO смотреть онлайн, скачать торрент picoco.icu