Достать ножи: Стеклянная луковица

MVO

Добыча

Дубляж

Уэнсдэй

1 сезон

Тор

Дубляж

13 клиническая

1 сезон

Жестокая ночь

MVO

Одни из нас

1 сезон

Deluxe

pack

Рекомендуем

30

Пиратка

ВАЖНО

ВАЖНО

Ghostwire

Пиратка

jed

RePack

nioh2

RePack

RDR2

RePack

NEED FOR SPEED™ PAYBACK

RePack

скачать торрент

Кинопоиск HD

Острые козырьки 6 сезон

6 сезон

FAR CRY 6

RePack

скачать торрент

Лицензия

скачать торрент

MVO

1

1 сезон

скачать торрент

1 сезон

скачать торрент

Лицензия

  

Миссия невыполнима: Племя изгоев / Mission: Impossible - Rogue Nation (Кристофер МакКуорри) [2015, боевик, триллер, приключения, UHD BDRemux 2160p] Дубляж (rus, ukr) + AVO [Ю. Живов]

Миссия невыполнима: Племя изгоев через торрент piratbit.org

Размер: 51.28 GB | Добавлен: 4 года 7 мес. назад | Торрент скачан:105 раз
Смотреть онлайн | Скачать | Поддержите нас   

28-06-2018 02:19 Миссия невыполнима: Племя изгоев Скачать торрент  

Миссия невыполнима: Племя изгоев / Mission: Impossible - Rogue Nation«Отчаянные времена - отчаянные меры»
Год выпуска: 2015
Страна: Китай, Гонконг, США
Жанр: боевик, триллер, приключения
Продолжительность: 02:11:33
Перевод: Дублированный, авторский
Субтитры: Русские, английские
Режиссер: Кристофер МакКуорри
В ролях:

Том Круз (Ethan Hunt), Ребекка Фергюсон (Ilsa Faust), Саймон Пегг (Benji Dunn), Джереми Реннер (William Brandt), Винг Реймз (Luther Stickell), Шон Харрис (Lane), Алек Болдуин (Alan Hunley), Саймон МакБерни (Atlee), Йенс Хультен (Janik Vinter), Том Холландер (Prime Minister), Чжан Цзинчу (Lauren), Матео Руфино (A400 Pilot)
Описание:
Когда ОМН распускают, и Итан Хант остается не у дел, его команда неожиданно сталкивается с разветвленной международной сетью высокопрофессиональных спецагентов - Синдикатом. Это «племя изгоев» одержимо идеей установления нового мирового порядка и планирует серию разрушительных терактов. Итан и компания объединяются с дискредитированным британским агентом Ильзой Фауст и приступают к своей самой невыполнимой миссии...
Рейтинг:

MPAA: PG-13 - Детям до 13 лет просмотр не желателен
Качество: UHD BDRemux 2160p
Формат: MKV
Видео: HEVC, HDR, 3840x2160 (16:9), 23.976 fps, 42.8 Mb/s, 0.215 bit/pixel
Аудио #1: AC-3, 48.0 kHz, 6 ch, 640 kb/s, CBR (Russian) | Дублированный |
Аудио #2: DTS MA, 48.0 kHz, 8 ch, 5414 kb/s (Russian) | AVO, Ю. Живов |
Аудио #3: AC-3, 48.0 kHz, 6 ch, 640 kb/s, CBR (Russian) | AVO, Ю. Живов |
Аудио #4: AC-3, 48.0 kHz, 6 ch, 448 kb/s, CBR (Ukrainian) | Дублированный, LeDoyen |
Аудио #5: TrueHD+Atmos 48.0 kHz, 8 ch, 4 895 kb/s (English) | Original |
Аудио #6: AC-3, 48.0 kHz, 6 ch, 640 kb/s, CBR (English) | Original |
Аудио #7: AC-3, 48.0 kHz, 2 ch, 224 kb/s, CBR (English) | Commentary by director Christopher McQuarrie and star Tom Cruise
Навигация по главам: есть
Общее
Уникальный идентификатор : 282085802012402855441816527998448568442 (0xD437BFD2020B7B12D45899098654087A)
Полное имя : Mission.Impossible.Rogue.Nation.2015.UHD.BDRemux.2160p.HEVC.HDR.IVA(RUS.UKR.ENG).ExKinoRay.mkv
Формат : Matroska
Версия формата : Version 4 / Version 2
Размер файла : 51,3 Гбайт
Продолжительность : 2 ч. 11 м.
Режим общего битрейта : Переменный
Общий поток : 55,8 Мбит/сек
Название фильма : Миссия невыполнима: Племя изгоев / Mission: Impossible - Rogue Nation ( 2015 ) UHD BDRemux | HDR, 4K | IVA(RUS.UKR.ENG) | ExKinoRay
Дата кодирования : UTC 2018-06-27 21:23:46
Программа кодирования : mkvmerge v24.0.0 ('Beyond The Pale') 64-bit
Библиотека кодирования : libebml v1.3.6 + libmatroska v1.4.9
Обложка : Yes
Attachments : cover

Видео
Идентификатор : 1
Формат : HEVC
Формат/Информация : High Efficiency Video Coding
Коммерческое название : HDR10
Профиль формата : Main 10@L5.1@High
Идентификатор кодека : V_MPEGH/ISO/HEVC
Продолжительность : 2 ч. 11 м.
Битрейт : 42,8 Мбит/сек
Ширина : 3840 пикселей
Высота : 2160 пикселей
Соотношение сторон : 16:9
Режим частоты кадров : Постоянный
Частота кадров : 23,976 (24000/1001) кадра/сек
Цветовое пространство : YUV
Субдискретизация насыщенности : 4:2:0 (Type 2)
Битовая глубина : 10 бит
Бит/(Пиксели*Кадры) : 0.215
Размер потока : 39,4 Гбайт (77%)
Заголовок : Mission.Impossible.Rogue.Nation.2015.UHD.BDRemux.2160p.HEVC.HDR
Язык : English
Default : Да
Forced : Нет
Цветовой диапазон : Limited
Основные цвета : BT.2020
Характеристики трансфера : PQ
Коэффициенты матрицы : BT.2020 non-constant
MasteringDisplay_Luminance : min: 0.0001 cd/m2, max: 1000 cd/m2

Аудио #1
Идентификатор : 2
Формат : AC-3
Формат/Информация : Audio Coding 3
Идентификатор кодека : A_AC3
Продолжительность : 2 ч. 11 м.
Вид битрейта : Постоянный
Битрейт : 640 Кбит/сек
Каналы : 6 каналов
Расположение каналов : Front: L C R, Side: L R, LFE
Частота : 48,0 КГц
Частота кадров : 31,250 кадров/сек (1536 SPF)
Битовая глубина : 16 бит
Метод сжатия : С потерями
Размер потока : 602 Мбайт (1%)
Заголовок : | Дублированный |
Язык : Russian
ServiceKind/String : Complete Main
Default : Да
Forced : Нет

Аудио #2
Идентификатор : 3
Формат : DTS
Формат/Информация : Digital Theater Systems
Профиль формата : MA / Core
Идентификатор кодека : A_DTS
Продолжительность : 2 ч. 11 м.
Вид битрейта : Переменный / Постоянный
Битрейт : 5414 Кбит/сек / 1509 Кбит/сек
Каналы : 8 каналов / 6 каналов
Расположение каналов : Front: L C R, Side: L R, Back: L R, LFE / Front: L C R, Side: L R, LFE
Частота : 48,0 КГц
Частота кадров : 93,750 кадра/сек (512 SPF)
Битовая глубина : 24 бит
Метод сжатия : Без потерь / Lossy
Размер потока : 4,97 Гбайт (10%)
Заголовок : | AVO, Ю. Живов |
Язык : Russian
Default : Нет
Forced : Нет

Аудио #3
Идентификатор : 4
Формат : AC-3
Формат/Информация : Audio Coding 3
Идентификатор кодека : A_AC3
Продолжительность : 2 ч. 11 м.
Вид битрейта : Постоянный
Битрейт : 640 Кбит/сек
Каналы : 6 каналов
Расположение каналов : Front: L C R, Side: L R, LFE
Частота : 48,0 КГц
Частота кадров : 31,250 кадров/сек (1536 SPF)
Битовая глубина : 16 бит
Метод сжатия : С потерями
Размер потока : 602 Мбайт (1%)
Заголовок : | AVO, Ю. Живов |
Язык : Russian
ServiceKind/String : Complete Main
Default : Нет
Forced : Нет

Аудио #4
Идентификатор : 5
Формат : AC-3
Формат/Информация : Audio Coding 3
Идентификатор кодека : A_AC3
Продолжительность : 2 ч. 11 м.
Вид битрейта : Постоянный
Битрейт : 448 Кбит/сек
Каналы : 6 каналов
Расположение каналов : Front: L C R, Side: L R, LFE
Частота : 48,0 КГц
Частота кадров : 31,250 кадров/сек (1536 SPF)
Битовая глубина : 16 бит
Метод сжатия : С потерями
Размер потока : 422 Мбайт (1%)
Заголовок : | Дублированный, LeDoyen |
Язык : Ukrainian
ServiceKind/String : Complete Main
Default : Нет
Forced : Нет

Аудио #5
Идентификатор : 6
Формат : TrueHD
Профиль формата : TrueHD+Atmos / TrueHD
Идентификатор кодека : A_TRUEHD
Продолжительность : 2 ч. 11 м.
Вид битрейта : Переменный
Битрейт : 4895 Кбит/сек
Максимальный битрейт : 8736 Кбит/сек
Каналы : Object Based / 8 каналов
Расположение каналов : Object Based / Front: L C R, Side: L R, Back: L R, LFE
Частота : / 48,0 КГц
Частота кадров : 1200,000 кадров/сек (40 SPF)
Метод сжатия : Без потерь
Размер потока : 4,50 Гбайт (9%)
Заголовок : | Original |
Язык : English
Default : Нет
Forced : Нет

Аудио #6
Идентификатор : 7
Формат : AC-3
Формат/Информация : Audio Coding 3
Идентификатор кодека : A_AC3
Продолжительность : 2 ч. 11 м.
Вид битрейта : Постоянный
Битрейт : 640 Кбит/сек
Каналы : 6 каналов
Расположение каналов : Front: L C R, Side: L R, LFE
Частота : 48,0 КГц
Частота кадров : 31,250 кадров/сек (1536 SPF)
Битовая глубина : 16 бит
Метод сжатия : С потерями
Размер потока : 602 Мбайт (1%)
Заголовок : | Original, AC3 Core |
Язык : English
ServiceKind/String : Complete Main
Default : Нет
Forced : Нет

Аудио #7
Идентификатор : 8
Формат : AC-3
Формат/Информация : Audio Coding 3
Идентификатор кодека : A_AC3
Продолжительность : 2 ч. 11 м.
Вид битрейта : Постоянный
Битрейт : 224 Кбит/сек
Каналы : 2 канала
Расположение каналов : Front: L R
Частота : 48,0 КГц
Частота кадров : 31,250 кадров/сек (1536 SPF)
Битовая глубина : 16 бит
Метод сжатия : С потерями
Размер потока : 211 Мбайт (0%)
Заголовок : Commentary by director Christopher McQuarrie and star Tom Cruise
Язык : English
ServiceKind/String : Complete Main
Default : Нет
Forced : Нет

Текст #1
Идентификатор : 9
Формат : UTF-8
Идентификатор кодека : S_TEXT/UTF8
Идентификатор кодека/Информация : UTF-8 Plain Text
Продолжительность : 1 ч. 57 м.
Битрейт : 2 бит/сек
ElementCount : 50
Размер потока : 2,08 Кбайт (0%)
Заголовок : Forced
Язык : Russian
Default : Да
Forced : Да

Текст #2
Идентификатор : 10
Формат : UTF-8
Идентификатор кодека : S_TEXT/UTF8
Идентификатор кодека/Информация : UTF-8 Plain Text
Продолжительность : 2 ч. 3 м.
Битрейт : 80 бит/сек
ElementCount : 1219
Размер потока : 72,5 Кбайт (0%)
Заголовок : Full
Язык : Russian
Default : Нет
Forced : Нет

Текст #3
Идентификатор : 11
Формат : UTF-8
Идентификатор кодека : S_TEXT/UTF8
Идентификатор кодека/Информация : UTF-8 Plain Text
Продолжительность : 1 ч. 57 м.
Битрейт : 2 бит/сек
ElementCount : 50
Размер потока : 1,90 Кбайт (0%)
Заголовок : Forced
Язык : Ukrainian
Default : Нет
Forced : Да

Текст #4
Идентификатор : 12
Формат : UTF-8
Идентификатор кодека : S_TEXT/UTF8
Идентификатор кодека/Информация : UTF-8 Plain Text
Продолжительность : 2 ч. 3 м.
Битрейт : 78 бит/сек
ElementCount : 1259
Размер потока : 70,9 Кбайт (0%)
Заголовок : Full
Язык : Ukrainian
Default : Нет
Forced : Нет

Текст #5
Идентификатор : 13
Формат : UTF-8
Идентификатор кодека : S_TEXT/UTF8
Идентификатор кодека/Информация : UTF-8 Plain Text
Продолжительность : 1 ч. 53 м.
Битрейт : 0 бит/сек
ElementCount : 22
Размер потока : 650 байт (0%)
Заголовок : Forced
Язык : English
Default : Нет
Forced : Да

Текст #6
Идентификатор : 14
Формат : UTF-8
Идентификатор кодека : S_TEXT/UTF8
Идентификатор кодека/Информация : UTF-8 Plain Text
Продолжительность : 2 ч. 3 м.
Битрейт : 49 бит/сек
ElementCount : 1233
Размер потока : 44,7 Кбайт (0%)
Заголовок : Full
Язык : English
Default : Нет
Forced : Нет

Текст #7
Идентификатор : 15
Формат : UTF-8
Идентификатор кодека : S_TEXT/UTF8
Идентификатор кодека/Информация : UTF-8 Plain Text
Продолжительность : 2 ч. 3 м.
Битрейт : 53 бит/сек
ElementCount : 1410
Размер потока : 48,6 Кбайт (0%)
Заголовок : SDH
Язык : English
Default : Нет
Forced : Нет

Текст #8
Идентификатор : 16
Формат : UTF-8
Идентификатор кодека : S_TEXT/UTF8
Идентификатор кодека/Информация : UTF-8 Plain Text
Продолжительность : 2 ч. 3 м.
Битрейт : 63 бит/сек
ElementCount : 1410
Размер потока : 57,1 Кбайт (0%)
Заголовок : SDH-Colored
Язык : English
Default : Нет
Forced : Нет

Меню
00:00:00.000 : en:Chapter 1
00:09:53.092 : en:Chapter 2
00:20:45.703 : en:Chapter 3
00:25:32.072 : en:Chapter 4
00:32:00.669 : en:Chapter 5
00:40:03.443 : en:Chapter 6
00:49:35.556 : en:Chapter 7
01:01:01.157 : en:Chapter 8
01:09:51.687 : en:Chapter 9
01:20:20.858 : en:Chapter 10
01:29:29.322 : en:Chapter 11
01:38:32.824 : en:Chapter 12
01:48:19.410 : en:Chapter 13
01:57:13.944 : en:Chapter 14
02:03:02.709 : en:Chapter 15



Скачать Миссия невыполнима: Племя изгоев через торрент https://a.radikal.ru/a25/1806/b3/b18dceaed16e.png Скачать, смотреть онлайн Миссия невыполнима: Племя изгоев бесплантно в хорошем качестве Описание: Когда ОМН распускают, и Итан Хант остается не у дел, его команда неожиданно сталкивается с разветвленной международной сетью ... 10 10 3
Info! Золотая раздача, скачанное не засчитывается.
Торрент: Зарегистрирован [2018-06-28 02:19] · скачан: 105 раз
Статус: √ проверено
Размер: 51.28 GB
Как cкачать? Как скачать Миссия невыполнима: Племя изгоев через торрент | UTorrent

% Раздел Тема Автор DL S | L
Фильмы с авторской озвучкой [ 1.47 GB ] Миссия невыполнима: Племя изгоев / Mission: Impossible - Rogue Nation | AVO | BDRip killermax2013 Скачать
1 | 0
Фильмы с авторской озвучкой [ 1.28 GB ] Миссия невыполнима: Племя изгоев / Mission: Impossible - Rogue Nation | AVO | HDRip-AVC killermax2013 Скачать
1 | 0

28-11-2019 20:33  


Отключить вcю реклaмy на сайте, в т.ч. и в плеере онлайн просмотра!

    Дорогой пользователь! Огромная просьба, поблагодарите релизера, оцените раздачу и оставьте свои комментарий, если Вы скачали Миссия невыполнима: Племя изгоев через торрент бесплатно!!
    Комментировать посты могут только пользователи прошедшие не сложную регистрацию
    Показать сообщения:    


    Миссия невыполнима: Племя изгоев через торрент
    Скачать бесплатно Миссия невыполнима: Племя изгоев
    Миссия невыполнима: Племя изгоев скачать торрент
    Миссия невыполнима: Племя изгоев смотреть онлайн
    Cкачать фильм Миссия невыполнима: Племя изгоев бесплатно
    Миссия невыполнима: Племя изгоев скачать торрент в хорошем качестве
    Миссия невыполнима: Племя изгоев смотреть онлайн бесплатно в хорошем качестве
    Вы не можете начинать темы
    Вы не можете отвечать на сообщения
    Вы не можете редактировать свои сообщения
    Вы не можете удалять свои сообщения
    Вы не можете голосовать в опросах
    Вы не можете прикреплять файлы к сообщениям
    Вы можете скачивать файлы
    Миссия невыполнима: Племя изгоев / Mission: Impossible - Rogue Nation [2015, боевик, триллер, приключения, UHD BDRemux 2160p] Дубляж + AVO [Ю. Живов] смотреть онлайн, скачать торрент picoco.icu