Доктор Стрэндж

Лицензия

Добыча

MVO

Дом дракона

1 сезон

Тор

Лицензия

Мэверик

Лицензия

Там, где раки поют

MVO

Властелин колец

1 сезон

Ultimate

pack

Рекомендуем

30

Repack

ВАЖНО

ВАЖНО

Ghostwire

RePack

jed

RePack

nioh2

RePack

RDR2

RePack

NEED FOR SPEED™ PAYBACK

RePack

скачать торрент

Кинопоиск HD

Острые козырьки 6 сезон

6 сезон

FAR CRY 6

RePack

скачать торрент

Лицензия

скачать торрент

MVO

1

1 сезон

скачать торрент

1 сезон

скачать торрент

Лицензия

  

Первые испытания (Владимир Корш-Саблин) [1960-1961, кинороман, экранизация, DVDRip от AVP Studio]

Первые испытания через торрент piratbit.org

Размер: 2.18 GB | Добавлен: 4 года 3 мес. назад | Торрент скачан:17 раз
Смотреть онлайн | Скачать   

28-06-2018 08:34 Первые испытания Скачать торрент  

Первые испытания
Страна: СССР
Производство: Беларусьфильм

Жанр: кинороман, экранизация
Год выпуска: 1960-1961
Продолжительность: 02:53:39 (01:28:13 + 01:25:26)

Перевод: Не требуется
Cубтитры: нет
Оригинальная аудиодорожка: русский

Режиссер: Владимир Корш-Саблин

В ролях:
Эдуард Изотов, Наталья Кустинская, Елена Корнилова, Иван Шатило, Юрий Дедович, Игорь Сретенский, Николай Ерёменко (ст.), Александр Кистов, Глеб Глебов, Виктор Тарасов, Александр Ильинский, Михаил Названов, Анатолий Кацинский, Павел Молчанов, Геннадий Мичурин, Фёдор Шмаков, Владимир Балашов, Владимир Соловьёв...
Об актёрах подробней

Описание:
Действие фильма начинается во время революции 1905 года. Молодой учитель Андрей Лобанович (Эдуард Изотов)приезжает работать в белорусское село Тельшино. Выполняя обещание другу, погибшему от руки царского сыщика, Лобанович вступает в фиктивный брак с революционеркой Ольгой Андросовой. В ночь на Ивана Купалу возле костра в лесу собрался съезд учителей. Неожиданно появившиеся жандармы разогнали сходку и арестовали руководителя. Вскоре их всех уволили из школ. Лобанович тоже оказался без работы. Он ещё раз встретился с Ядвисей. Она говорила, что уйдет от мужа, что любит только Андрея. Но на следующее свидание Ядвися не пришла...

Источник: DVD9 R5
Качество видео: DVDRip
Формат видео: AVI

Видео: 704x528 (4:3), 25 fps, XviD ~ 1596 kbps avg, 0.172 bit/pixel
Аудио: 48 kHz, Dolby Digital AC3 2.0, 192 kbps

Раздача от:
Общее
Полное имя : Pervye.ispytaniya.1960.DVDRip_[New-team]_by_AVP_Studio\Серия 01.avi
Формат : AVI
Формат/Информация : Audio Video Interleave
Размер файла : 1,11 Гбайт
Продолжительность : 1 ч. 28 м.
Общий поток : 1798 Кбит/сек
Программа кодирования : VirtualDubMod 1.5.10.3 | www.virtualdub-fr.org || (build 2550/release)
Библиотека кодирования : VirtualDubMod build 2550/release

Видео
Идентификатор : 0
Формат : MPEG-4 Visual
Профиль формата : Advanced Simple@L5
Настройки формата : BVOP1 / Custom Matrix
Параметр BVOP формата : 1
Параметр QPel формата : Нет
Параметр GMC формата : Без точки перехода
Параметр матрицы формата : Выборочная
Идентификатор кодека : XVID
Идентификатор кодека/Подсказка : XviD
Продолжительность : 1 ч. 28 м.
Битрейт : 1596 Кбит/сек
Ширина : 704 пикселя
Высота : 528 пикселей
Соотношение сторон : 4:3
Частота кадров : 25,000 кадров/сек
Цветовое пространство : YUV
Субдискретизация насыщенности : 4:2:0
Битовая глубина : 8 бит
Тип развёртки : Прогрессивная
Метод сжатия : С потерями
Бит/(Пиксели*Кадры) : 0.172
Размер потока : 1007 Мбайт (89%)
Библиотека кодирования : XviD 73

Аудио
Идентификатор : 1
Формат : AC-3
Формат/Информация : Audio Coding 3
Идентификатор кодека : 2000
Продолжительность : 1 ч. 28 м.
Вид битрейта : Постоянный
Битрейт : 192 Кбит/сек
Каналы : 2 канала
Расположение каналов : Front: L R
Частота : 48,0 КГц
Частота кадров : 31,250 кадров/сек (1536 SPF)
Битовая глубина : 16 бит
Метод сжатия : С потерями
Размер потока : 121 Мбайт (11%)
Выравнивание : Разделение по промежуткам
Продолжительность промежутка : 40 мс. (1,00 видеокадр)
Время предзагрузки промежутка : 500 мс



Скачать Первые испытания через торрент http://picplus.ru/img/1806/27/87ad724e.png Скачать, смотреть онлайн Первые испытания бесплантно в хорошем качестве Описание:Действие фильма начинается во время революции 1905 года. Молодой учитель Андрей Лобанович (Эдуард Изотов)приезжает работать в ... 5 10 1
Info! Золотая раздача, скачанное не засчитывается.
Торрент: Зарегистрирован [2018-06-28 08:34] · скачан: 17 раз
Статус: √ проверено
Размер: 2.18 GB
Как cкачать? Как скачать Первые испытания через торрент | UTorrent

% Раздел Тема Автор DL S | L
Кино СССР [ 2.18 GB ] Первые испытания | | DVDRip-AVC от AVP Studio AVP Studio Скачать
1 | 0

28-11-2019 20:33  


Отключить вcю реклaмy на сайте, в т.ч. и в плеере онлайн просмотра!

    Дорогой пользователь! Огромная просьба, поблагодарите релизера, оцените раздачу и оставьте свои комментарий, если Вы скачали Первые испытания через торрент бесплатно!!
    Комментировать посты могут только пользователи прошедшие не сложную регистрацию
    Показать сообщения:    


    Первые испытания через торрент
    Скачать бесплатно Первые испытания
    Первые испытания скачать торрент
    Первые испытания смотреть онлайн
    Cкачать фильм Первые испытания бесплатно
    Первые испытания скачать торрент в хорошем качестве
    Первые испытания смотреть онлайн бесплатно в хорошем качестве
    Вы не можете начинать темы
    Вы не можете отвечать на сообщения
    Вы не можете редактировать свои сообщения
    Вы не можете удалять свои сообщения
    Вы не можете голосовать в опросах
    Вы не можете прикреплять файлы к сообщениям
    Вы можете скачивать файлы