Достать ножи: Стеклянная луковица

MVO

Добыча

Дубляж

Уэнсдэй

1 сезон

Тор

Дубляж

13 клиническая

1 сезон

Жестокая ночь

MVO

Одни из нас

1 сезон

Deluxe

pack

Рекомендуем

30

Пиратка

ВАЖНО

ВАЖНО

Ghostwire

Пиратка

jed

RePack

nioh2

RePack

RDR2

RePack

NEED FOR SPEED™ PAYBACK

RePack

скачать торрент

Кинопоиск HD

Острые козырьки 6 сезон

6 сезон

FAR CRY 6

RePack

скачать торрент

Лицензия

скачать торрент

MVO

1

1 сезон

скачать торрент

1 сезон

скачать торрент

Лицензия

  

Миссия: невыполнима / Mission: Impossible (Брайан Де Пальма) [1996, боевик, триллер, приключения, UHD BDRip 2160p] 7xMVO + 3xAVO + VO

Миссия: невыполнима через торрент piratbit.org

Размер: 39.22 GB | Добавлен: 4 года 7 мес. назад | Торрент скачан:63 раза
Смотреть онлайн | Скачать | Поддержите нас   

28-06-2018 10:04 Миссия: невыполнима Скачать торрент  

Миссия: невыполнима / Mission: Impossible

Год выпуска: 1996
Страна: США
Жанр: боевик, триллер, приключения
Продолжительность: 01:50:12
Перевод: Профессиональный многоголосый, профессиональный одноголосый, авторский
Субтитры: Русские, английские, испанские, французские, немецкие, португальские
Режиссер: Брайан Де Пальма
В ролях:

Том Круз (Ethan Hunt), Джон Войт (Jim Phelps), Эммануэль Беар (Claire), Генри Черни (Kittridge), Жан Рено (Krieger), Винг Реймз (Luther), Кристин Скотт Томас (Sarah Davies), Ванесса Редгрейв (Max), Ингеборга Дапкунайте (Hannah), Эмилио Эстевес (Jack Harmon, в титрах не указан), Валентина Якунина (Drunken Female IMF Agent), Марек Васут (Drunken Male IMF Agent)
Описание:
Агент ЦРУ Итан Хант оказался в положении подозреваемого в предательстве «крота», из-за которого погибли несколько членов его команды, включая руководителя группы Джима Фелпса. В живых осталась еще только коллега Ханта - жена Фелпса агент Клэр. Чтобы снять с себя обвинения в предательстве, Ханту надо найти настоящего «крота».
Рейтинг:

MPAA: PG-13 - Детям до 13 лет просмотр не желателен
Качество: UHD BDRip 2160p
Формат: MKV
Видео: HEVC, HDR, 38.4 Mбит/с, 3840x1600, 23.976 Кадр/с
Аудио 1: DTS-HD Master Audio / Russian / 3804 kbps / 5.1 / 48 kHz / 3804 kbps / 24-bit (MVO - П.Гланц)
Аудио 2: DTS Audio / Russian / 1509 kbps / 5.1 / 48 kHz / 1509 kbps / 24-bit (AVO - С. Визгунов)
Аудио 3: Dolby Digital Audio / Russian / 448 kbps / 5.1 / 48 kHz / 448 kbps (MVO - Позитив)
Аудио 4: Dolby Digital Audio / Russian / 384 kbps / 5.1 / 48 kHz / 384 kbps (MVO - НТВ)
Аудио 5: Dolby Digital Audio / Russian / 384 kbps / 5.1 / 48 kHz / 384 kbps (AVO - Ю. Живов)
Аудио 6: Dolby Digital Audio / Russian / 448 kbps / 5.1 / 48 kHz / 448 kbps (MVO - Киномания)
Аудио 7: Dolby Digital Audi / Russian / 384 kbps / 5.1 / 48 kHz / 384 kbps (AVO - А. Гаврилов)
Аудио 8: Dolby Digital Audio / Russian / 224 kbps / 2.0 / 48 kHz / 224 kbps / Dolby Surround (MVO - ОРТ)
Аудио 9: Dolby Digital Audio / Russian / 224 kbps / 2.0 / 48 kHz / 224 kbps / Dolby Surround (MVO - СТС)
Аудио 10: Dolby Digital Audio /Russian / 192 kbps / 2.0 / 48 kHz / 192 kbps / Dolby Surround (MVO - Премьер-Видео)
Аудио 11: Dolby Digital Audio / Russian / 192 kbps / 2.0 / 48 kHz / 192 kbps / Dolby Surround (VO - М. Латышев)
Аудио 12: Dolby Digital Audio / Ukrainian / 192 kbps / 2.0 / 48 kHz / 192 kbps / Dolby Surround (MVO - ICTV)
Аудио 13: TrueHD+Atmos / English / 4890 kbps / 5.1 / 48 kHz / 3365 kbps / Original
Аудио 14: Dolby Digital Audio / English / 640 kbps / 5.1 / 48 kHz / 640 kbps / Original
Навигация по главам: есть
Всего 3 награды и 13 номинацмй еа разных кинофестивалях.
BMI Film & TV Awards (1997)
Победитель (1):
* BMI Film Music Award (Danny Elfman)
==========================
Golden Screen, Germany (1996)
Победитель (1):
* Golden Screen
==========================
PGA Awards (1997)
Победитель (1):
* Nova AwardMost Promising Producer in Theatrical Motion Pictures (Tom Cruise, Paula Wagner)
=========================
Премия канала «MTV» (1997)
Номинации (1):
* Лучшая экшн-сцена
==========================
Золотая малина (1997)
Номинации (1):
* Худший блокбастер (фильм, собравший более 100 млн. долларов)
==========================
Сатурн (1997)
Номинации (1):
* Лучший приключенческий фильм, боевик или триллер
Complete name : E:\Mission.Impossible.1996.2160p.UHD.BluRay.X265-SpaceHD13.mkv
Format : Matroska
Format version : Version 4 / Version 2
File size : 39.2 GiB
Duration : 1 h 50 min
Overall bit rate mode : Variable
Overall bit rate : 50.9 Mb/s
Movie name : Mission.Impossible.1996.2160p.UHD.BluRay.X265-SpaceHD13
Encoded date : UTC 2018-06-27 22:45:22
Writing application : mkvmerge v24.0.0 ('Beyond The Pale') 64-bit
Writing library : libebml v1.3.6 + libmatroska v1.4.9

Video
ID : 1
Format : HEVC
Format/Info : High Efficiency Video Coding
Commercial name : HDR10
Format profile : Main 10@L5.1@High
Codec ID : V_MPEGH/ISO/HEVC
Duration : 1 h 50 min
Bit rate : 38.4 Mb/s
Width : 3 840 pixels
Height : 1 600 pixels
Display aspect ratio : 2.40:1
Frame rate mode : Constant
Frame rate : 23.976 (24000/1001) FPS
Color space : YUV
Chroma subsampling : 4:2:0 (Type 2)
Bit depth : 10 bits
Bits/(Pixel*Frame) : 0.261
Stream size : 29.6 GiB (75%)
Title : Mission.Impossible.1996.2160p.UHD.BluRay.X265-SpaceHD13
Writing library : x265 2.8+10-703eade86b53:[Windows][GCC 8.1.0][64 bit] 10bit
Encoding settings : cpuid=1176575 / frame-threads=5 / numa-pools=36 / wpp / no-pmode / no-pme / no-psnr / no-ssim / log-level=2 / input-csp=1 / input-res=3840x1600 / interlace=0 / total-frames=158552 / level-idc=51 / high-tier=1 / uhd-bd=0 / ref=4 / no-allow-non-conformance / repeat-headers / annexb / aud / hrd / info / hash=0 / no-temporal-layers / no-open-gop / min-keyint=24 / keyint=240 / gop-lookahead=0 / bframes=4 / b-adapt=2 / b-pyramid / bframe-bias=0 / rc-lookahead=25 / lookahead-slices=4 / scenecut=40 / radl=0 / no-intra-refresh / ctu=64 / min-cu-size=8 / rect / no-amp / max-tu-size=32 / tu-inter-depth=1 / tu-intra-depth=1 / limit-tu=0 / rdoq-level=2 / dynamic-rd=0.00 / no-ssim-rd / signhide / no-tskip / nr-intra=0 / nr-inter=0 / no-constrained-intra / no-strong-intra-smoothing / max-merge=3 / limit-refs=3 / limit-modes / me=3 / subme=3 / merange=57 / temporal-mvp / weightp / no-weightb / no-analyze-src-pics / deblock=-3:-3 / no-sao / no-sao-non-deblock / rd=4 / no-early-skip / rskip / no-fast-intra / no-tskip-fast / no-cu-lossless / no-b-intra / no-splitrd-skip / rdpenalty=0 / psy-rd=2.00 / psy-rdoq=1.00 / no-rd-refine / no-lossless / cbqpoffs=0 / crqpoffs=0 / rc=crf / crf=19.0 / qcomp=0.60 / qpstep=4 / stats-write=0 / stats-read=0 / vbv-maxrate=160000 / vbv-bufsize=160000 / vbv-init=0.9 / crf-max=0.0 / crf-min=0.0 / ipratio=1.40 / pbratio=1.30 / aq-mode=1 / aq-strength=1.00 / cutree / zone-count=0 / no-strict-cbr / qg-size=32 / no-rc-grain / qpmax=69 / qpmin=0 / no-const-vbv / sar=1 / overscan=0 / videoformat=5 / range=0 / colorprim=9 / transfer=16 / colormatrix=9 / chromaloc=1 / chromaloc-top=2 / chromaloc-bottom=2 / display-window=0 / master-display=G(13250,34500)B(7500,3000)R(34000,16000)WP(15635,16450)L(10000000,1) / max-cll=0,0 / min-luma=0 / max-luma=1023 / log2-max-poc-lsb=8 / vui-timing-info / vui-hrd-info / slices=1 / no-opt-qp-pps / no-opt-ref-list-length-pps / no-multi-pass-opt-rps / scenecut-bias=0.05 / no-opt-cu-delta-qp / no-aq-motion / hdr / hdr-opt / no-dhdr10-opt / no-idr-recovery-sei / analysis-reuse-level=5 / scale-factor=0 / refine-intra=0 / refine-inter=0 / refine-mv=0 / no-limit-sao / ctu-info=0 / no-lowpass-dct / refine-mv-type=0 / copy-pic=1 / max-ausize-factor=1.0 / no-dynamic-refine / no-single-sei
Default : Yes
Forced : No
Color range : Limited
Color primaries : BT.2020
Transfer characteristics : PQ
Matrix coefficients : BT.2020 non-constant
Mastering display color pri : Display P3
Mastering display luminance : min: 0.0001 cd/m2, max: 1000 cd/m2

Audio #1
ID : 2
Format : DTS
Format/Info : Digital Theater Systems
Format profile : MA / Core
Codec ID : A_DTS
Duration : 1 h 50 min
Bit rate mode : Variable / Constant
Bit rate : 3 840 kb/s / 1 509 kb/s
Channel(s) : 6 channels
Channel positions : Front: L C R, Side: L R, LFE
Sampling rate : 48.0 kHz
Frame rate : 93.750 FPS (512 SPF)
Bit depth : 24 bits
Compression mode : Lossless / Lossy
Stream size : 2.93 GiB (7%)
Title : Mission.Impossible.1996.2160p.UHD.BluRay.X265-SpaceHD13[MVO - П.Гланц]
Language : Russian
Default : Yes
Forced : No

Audio #2
ID : 3
Format : AC-3
Format/Info : Audio Coding 3
Codec ID : A_AC3
Duration : 1 h 50 min
Bit rate mode : Constant
Bit rate : 384 kb/s
Channel(s) : 6 channels
Channel positions : Front: L C R, Side: L R, LFE
Sampling rate : 48.0 kHz
Frame rate : 31.250 FPS (1536 SPF)
Bit depth : 16 bits
Compression mode : Lossy
Stream size : 303 MiB (1%)
Title : Mission.Impossible.1996.2160p.UHD.BluRay.X265-SpaceHD13[MVO - НТВ]
Language : Russian
Service kind : Complete Main
Default : No
Forced : No

Audio #3
ID : 4
Format : AC-3
Format/Info : Audio Coding 3
Codec ID : A_AC3
Duration : 1 h 50 min
Bit rate mode : Constant
Bit rate : 384 kb/s
Channel(s) : 6 channels
Channel positions : Front: L C R, Side: L R, LFE
Sampling rate : 48.0 kHz
Frame rate : 31.250 FPS (1536 SPF)
Bit depth : 16 bits
Compression mode : Lossy
Stream size : 303 MiB (1%)
Title : Mission.Impossible.1996.2160p.UHD.BluRay.X265-SpaceHD13[MVO - Киномания]
Language : Russian
Service kind : Complete Main
Default : No
Forced : No

Audio #4
ID : 5
Format : AC-3
Format/Info : Audio Coding 3
Codec ID : A_AC3
Duration : 1 h 50 min
Bit rate mode : Constant
Bit rate : 192 kb/s
Channel(s) : 2 channels
Channel positions : Front: L R
Sampling rate : 48.0 kHz
Frame rate : 31.250 FPS (1536 SPF)
Bit depth : 16 bits
Compression mode : Lossy
Stream size : 151 MiB (0%)
Title : Mission.Impossible.1996.2160p.UHD.BluRay.X265-SpaceHD13[MVO - Премьер-Видео]
Language : Russian
Service kind : Complete Main
Default : No
Forced : No

Audio #5
ID : 6
Format : AC-3
Format/Info : Audio Coding 3
Codec ID : A_AC3
Duration : 1 h 50 min
Bit rate mode : Constant
Bit rate : 448 kb/s
Channel(s) : 6 channels
Channel positions : Front: L C R, Side: L R, LFE
Sampling rate : 48.0 kHz
Frame rate : 31.250 FPS (1536 SPF)
Bit depth : 16 bits
Compression mode : Lossy
Stream size : 353 MiB (1%)
Title : Mission.Impossible.1996.2160p.UHD.BluRay.X265-SpaceHD13[(MVO - Киномания)]
Language : Russian
Service kind : Complete Main
Default : No
Forced : No

Audio #6
ID : 7
Format : AC-3
Format/Info : Audio Coding 3
Codec ID : A_AC3
Duration : 1 h 50 min
Bit rate mode : Constant
Bit rate : 224 kb/s
Channel(s) : 2 channels
Channel positions : Front: L R
Sampling rate : 48.0 kHz
Frame rate : 31.250 FPS (1536 SPF)
Bit depth : 16 bits
Compression mode : Lossy
Stream size : 177 MiB (0%)
Title : Mission.Impossible.1996.2160p.UHD.BluRay.X265-SpaceHD13[MVO - ОРТ]
Language : Russian
Service kind : Complete Main
Default : No
Forced : No

Audio #7
ID : 8
Format : AC-3
Format/Info : Audio Coding 3
Codec ID : A_AC3
Duration : 1 h 50 min
Bit rate mode : Constant
Bit rate : 224 kb/s
Channel(s) : 2 channels
Channel positions : Front: L R
Sampling rate : 48.0 kHz
Frame rate : 31.250 FPS (1536 SPF)
Bit depth : 16 bits
Compression mode : Lossy
Stream size : 177 MiB (0%)
Title : Mission.Impossible.1996.2160p.UHD.BluRay.X265-SpaceHD13[MVO - СТС]
Language : Russian
Service kind : Complete Main
Default : No
Forced : No

Audio #8
ID : 9
Format : DTS
Format/Info : Digital Theater Systems
Codec ID : A_DTS
Duration : 1 h 50 min
Bit rate mode : Constant
Bit rate : 1 509 kb/s
Channel(s) : 6 channels
Channel positions : Front: L C R, Side: L R, LFE
Sampling rate : 48.0 kHz
Frame rate : 93.750 FPS (512 SPF)
Bit depth : 24 bits
Compression mode : Lossy
Stream size : 1.16 GiB (3%)
Title : Mission.Impossible.1996.2160p.UHD.BluRay.X265-SpaceHD13[VO - С. Визгунов]
Language : Russian
Default : No
Forced : No

Audio #9
ID : 10
Format : AC-3
Format/Info : Audio Coding 3
Codec ID : A_AC3
Duration : 1 h 50 min
Bit rate mode : Constant
Bit rate : 384 kb/s
Channel(s) : 6 channels
Channel positions : Front: L C R, Side: L R, LFE
Sampling rate : 48.0 kHz
Frame rate : 31.250 FPS (1536 SPF)
Bit depth : 16 bits
Compression mode : Lossy
Stream size : 303 MiB (1%)
Title : Mission.Impossible.1996.2160p.UHD.BluRay.X265-SpaceHD13[VO - А. Гаврилов]
Language : Russian
Service kind : Complete Main
Default : No
Forced : No

Audio #10
ID : 11
Format : AC-3
Format/Info : Audio Coding 3
Codec ID : A_AC3
Duration : 1 h 50 min
Bit rate mode : Constant
Bit rate : 448 kb/s
Channel(s) : 6 channels
Channel positions : Front: L C R, Side: L R, LFE
Sampling rate : 48.0 kHz
Frame rate : 31.250 FPS (1536 SPF)
Bit depth : 16 bits
Compression mode : Lossy
Stream size : 353 MiB (1%)
Title : Mission.Impossible.1996.2160p.UHD.BluRay.X265-SpaceHD13[VO - Ю. Живов]
Language : Russian
Service kind : Complete Main
Default : No
Forced : No

Audio #11
ID : 12
Format : AC-3
Format/Info : Audio Coding 3
Codec ID : A_AC3
Duration : 1 h 50 min
Bit rate mode : Constant
Bit rate : 192 kb/s
Channel(s) : 2 channels
Channel positions : Front: L R
Sampling rate : 48.0 kHz
Frame rate : 31.250 FPS (1536 SPF)
Bit depth : 16 bits
Compression mode : Lossy
Stream size : 151 MiB (0%)
Title : Mission.Impossible.1996.2160p.UHD.BluRay.X265-SpaceHD13[VO - М. Латышев]
Language : Russian
Service kind : Complete Main
Default : No
Forced : No

Audio #12
ID : 13
Format : AC-3
Format/Info : Audio Coding 3
Codec ID : A_AC3
Duration : 1 h 50 min
Bit rate mode : Constant
Bit rate : 192 kb/s
Channel(s) : 2 channels
Channel positions : Front: L R
Sampling rate : 48.0 kHz
Frame rate : 31.250 FPS (1536 SPF)
Bit depth : 16 bits
Compression mode : Lossy
Stream size : 151 MiB (0%)
Title : Mission.Impossible.1996.2160p.UHD.BluRay.X265-SpaceHD13[MVO - ICTV]
Language : Ukrainian
Service kind : Complete Main
Default : No
Forced : No

Audio #13
ID : 14
Format : TrueHD
Codec ID : A_TRUEHD
Duration : 1 h 50 min
Bit rate mode : Variable
Bit rate : 3 365 kb/s
Maximum bit rate : 4 890 kb/s
Channel(s) : 6 channels
Channel positions : Front: L C R, Side: L R, LFE
Sampling rate : 48.0 kHz
Frame rate : 1 200.000 FPS (40 SPF)
Compression mode : Lossless
Stream size : 2.59 GiB (7%)
Title : Mission.Impossible.1996.2160p.UHD.BluRay.X265-SpaceHD13
Language : English
Default : No
Forced : No

Audio #14
ID : 15
Format : AC-3
Format/Info : Audio Coding 3
Codec ID : A_AC3
Duration : 1 h 50 min
Bit rate mode : Constant
Bit rate : 640 kb/s
Channel(s) : 6 channels
Channel positions : Front: L C R, Side: L R, LFE
Sampling rate : 48.0 kHz
Frame rate : 31.250 FPS (1536 SPF)
Bit depth : 16 bits
Compression mode : Lossy
Stream size : 505 MiB (1%)
Title : Mission.Impossible.1996.2160p.UHD.BluRay.X265-SpaceHD13
Language : English
Service kind : Complete Main
Default : No
Forced : No

Text #1
ID : 16
Format : UTF-8
Codec ID : S_TEXT/UTF8
Codec ID/Info : UTF-8 Plain Text
Duration : 1 min 30 s
Bit rate : 31 b/s
Count of elements : 20
Stream size : 355 Bytes (0%)
Title : Forced SRT
Language : English
Default : No
Forced : Yes

Text #2
ID : 17
Format : UTF-8
Codec ID : S_TEXT/UTF8
Codec ID/Info : UTF-8 Plain Text
Duration : 1 h 45 min
Bit rate : 41 b/s
Count of elements : 966
Stream size : 32.0 KiB (0%)
Title : Stripped SRT
Language : English
Default : No
Forced : No

Text #3
ID : 18
Format : UTF-8
Codec ID : S_TEXT/UTF8
Codec ID/Info : UTF-8 Plain Text
Duration : 1 h 45 min
Bit rate : 41 b/s
Count of elements : 952
Stream size : 31.8 KiB (0%)
Title : Full SRT
Language : English
Default : No
Forced : No

Text #4
ID : 19
Format : PGS
Muxing mode : zlib
Codec ID : S_HDMV/PGS
Codec ID/Info : Picture based subtitle format used on BDs/HD-DVDs
Duration : 1 min 30 s
Bit rate : 19.2 kb/s
Count of elements : 40
Stream size : 212 KiB (0%)
Title : Forced
Language : English
Default : No
Forced : No

Text #5
ID : 20
Format : PGS
Muxing mode : zlib
Codec ID : S_HDMV/PGS
Codec ID/Info : Picture based subtitle format used on BDs/HD-DVDs
Duration : 1 h 45 min
Bit rate : 24.5 kb/s
Count of elements : 1904
Stream size : 18.5 MiB (0%)
Title : Full
Language : English
Default : No
Forced : No

Text #6
ID : 21
Format : UTF-8
Codec ID : S_TEXT/UTF8
Codec ID/Info : UTF-8 Plain Text
Duration : 1 h 45 min
Bit rate : 44 b/s
Count of elements : 1103
Stream size : 34.8 KiB (0%)
Title : SDH SRT
Language : English
Default : No
Forced : No

Text #7
ID : 22
Format : PGS
Muxing mode : zlib
Codec ID : S_HDMV/PGS
Codec ID/Info : Picture based subtitle format used on BDs/HD-DVDs
Duration : 1 h 45 min
Bit rate : 31.5 kb/s
Count of elements : 2131
Stream size : 23.8 MiB (0%)
Title : Full
Language : Russian
Default : Yes
Forced : Yes

Text #8
ID : 23
Format : PGS
Muxing mode : zlib
Codec ID : S_HDMV/PGS
Codec ID/Info : Picture based subtitle format used on BDs/HD-DVDs
Duration : 1 h 45 min
Bit rate : 27.6 kb/s
Count of elements : 2206
Stream size : 20.8 MiB (0%)
Title : SDH
Language : English
Default : No
Forced : No

Text #9
ID : 24
Format : PGS
Muxing mode : zlib
Codec ID : S_HDMV/PGS
Codec ID/Info : Picture based subtitle format used on BDs/HD-DVDs
Duration : 1 h 49 min
Bit rate : 24.1 kb/s
Count of elements : 2008
Stream size : 18.9 MiB (0%)
Language : French
Default : No
Forced : No

Text #10
ID : 25
Format : PGS
Muxing mode : zlib
Codec ID : S_HDMV/PGS
Codec ID/Info : Picture based subtitle format used on BDs/HD-DVDs
Duration : 1 h 49 min
Bit rate : 19.0 kb/s
Count of elements : 1266
Stream size : 14.9 MiB (0%)
Language : Spanish
Default : No
Forced : No

Text #11
ID : 26
Format : PGS
Muxing mode : zlib
Codec ID : S_HDMV/PGS
Codec ID/Info : Picture based subtitle format used on BDs/HD-DVDs
Duration : 1 h 45 min
Bit rate : 22.3 kb/s
Count of elements : 1826
Stream size : 16.8 MiB (0%)
Language : Spanish
Default : No
Forced : No

Text #12
ID : 27
Format : PGS
Muxing mode : zlib
Codec ID : S_HDMV/PGS
Codec ID/Info : Picture based subtitle format used on BDs/HD-DVDs
Duration : 1 h 49 min
Bit rate : 20.2 kb/s
Count of elements : 1784
Stream size : 15.9 MiB (0%)
Language : Portuguese
Default : No
Forced : No

Text #13
ID : 28
Format : PGS
Muxing mode : zlib
Codec ID : S_HDMV/PGS
Codec ID/Info : Picture based subtitle format used on BDs/HD-DVDs
Duration : 1 h 45 min
Bit rate : 23.8 kb/s
Count of elements : 2010
Stream size : 18.0 MiB (0%)
Language : German
Default : No
Forced : No

Text #14
ID : 29
Format : PGS
Muxing mode : zlib
Codec ID : S_HDMV/PGS
Codec ID/Info : Picture based subtitle format used on BDs/HD-DVDs
Duration : 1 h 45 min
Bit rate : 31.5 kb/s
Count of elements : 2131
Stream size : 23.8 MiB (0%)
Default : No
Forced : No

Menu
00:00:00.000 : en:00:00:00.000
00:03:01.223 : en:00:03:01.223
00:10:44.727 : en:00:10:44.727
00:26:43.811 : en:00:26:43.811
00:32:21.481 : en:00:32:21.481
00:39:50.388 : en:00:39:50.388
00:49:39.351 : en:00:49:39.351
00:55:45.801 : en:00:55:45.801
01:12:25.925 : en:01:12:25.925
01:18:34.668 : en:01:18:34.668
01:28:14.539 : en:01:28:14.539
01:38:06.881 : en:01:38:06.881
01:44:02.987 : en:01:44:02.987



Скачать Миссия: невыполнима через торрент https://d.radikal.ru/d07/1806/ec/66461665ac45.jpg Скачать, смотреть онлайн Миссия: невыполнима бесплантно в хорошем качестве Описание: Агент ЦРУ Итан Хант оказался в положении подозреваемого в предательстве «крота», из-за которого погибли несколько членов его ... 10 10 2
Info! Золотая раздача, скачанное не засчитывается.
Торрент: Зарегистрирован [2018-06-28 10:04] · скачан: 63 раз
Статус: √ проверено
Размер: 39.22 GB
Как cкачать? Как скачать Миссия: невыполнима через торрент | UTorrent

% Раздел Тема Автор DL S | L
Ultra HD (UHD: 2K, 4K, 8K) [ 64.08 GB ] Миссия: невыполнима / Mission: Impossible | MVO + 6xAVO + 2xDVO | 2160p sheker187 Скачать
1 | 0
Ultra HD (UHD: 2K, 4K, 8K) [ 70.64 GB ] Миссия: невыполнима / Mission: Impossible | MVO + 3xAVO + DVO | 2160p sheker187 Скачать
1 | 0

28-11-2019 20:33  


Отключить вcю реклaмy на сайте, в т.ч. и в плеере онлайн просмотра!

    Дорогой пользователь! Огромная просьба, поблагодарите релизера, оцените раздачу и оставьте свои комментарий, если Вы скачали Миссия: невыполнима через торрент бесплатно!!
    Комментировать посты могут только пользователи прошедшие не сложную регистрацию
    Показать сообщения:    


    Миссия: невыполнима через торрент
    Скачать бесплатно Миссия: невыполнима
    Миссия: невыполнима скачать торрент
    Миссия: невыполнима смотреть онлайн
    Cкачать фильм Миссия: невыполнима бесплатно
    Миссия: невыполнима скачать торрент в хорошем качестве
    Миссия: невыполнима смотреть онлайн бесплатно в хорошем качестве
    Вы не можете начинать темы
    Вы не можете отвечать на сообщения
    Вы не можете редактировать свои сообщения
    Вы не можете удалять свои сообщения
    Вы не можете голосовать в опросах
    Вы не можете прикреплять файлы к сообщениям
    Вы можете скачивать файлы
    Миссия: невыполнима / Mission: Impossible [1996, боевик, триллер, приключения, UHD BDRip 2160p] 7xMVO + 3xAVO + VO смотреть онлайн, скачать торрент picoco.icu