Ссылка на приватное зеркало нашего сайта всего за 1$. Внимание количество ограничено!!!

2 сезон

iTunes

iTunes

1

iTunes

iTunes

iTunes

WEBRip

iTunes

30
pack

Забери бонус

ВАЖНО

!!Акция!!

Alien_RageХит недели

RePack

RESIDENT EVIL 3: NEMESIS REMAKE

ИГРА 18+

pack

RePack

jed

!!Акция!!

Alien_Rage

RePack

fifa19

RePack

Assassins Creed: Odyssey

RePack

NEED FOR SPEED™ PAYBACK

4 сезон

9 сезон

Бесстыжие 9 сезон

Все сериалы

все сериалы на PB.wtf

RePack

FAR CRY 5
  

Мертвая тишина / Dead Silence (Джеймс Ван) [2007 г., Ужасы, Фэнтези, Триллер, Детектив, HDRip-AVC, Профессиональный (многоголосый)] piratbit.org

Мертвая тишина через торрент piratbit.org

Размер: 2.19 GB | Добавлен: 2 года 3 мес. назад | Торрент скачан:94 раза
Скачать  

30-06-2018 12:14 Мертвая тишина Скачать торрент  

Мертвая тишина /
Dead Silence
Год выпуска: 2007
Страна: США
Жанр: Ужасы, Фэнтези, Триллер, Детектив
Продолжительность: 01:31:30
Перевод: Профессиональный (многоголосый)
Субтитры: Отсутствуют

Режиссер: Джеймс Ван

Премьера в мире: 16 марта 2007

rating

В ролях: Райан Квантен, Эмбер Валлетта, Донни Уолберг, Майкл Фэйрмэн, Джоан Хини, Боб Гантон, Лаура Риган, Дмитрий Чеповецкий, Джудит Анна Робертс, Кейр Гилкрист и др.

Описание: Молодая пара, Джемми и Лиза, решили начать новую жизнь в маленьком городке вдали от суеты огромных мегаполисов. Только поселившись в этой заброшенной, запустелой точке на карте, они уже устали слушать сказки о наводняющих дома призраках и всей породы нечисти, обитающей повсюду. Когда Лиза была бесчеловечно убита, Джемми, будучи главным подозреваемым в преступлении, решает провести независимое расследование относительно её загадочной смерти.
Погружаясь в то, что он ещё недавно считал сказками, парень узнает легенду о некой Мэри, дух которой, по словам местных жителей, всё ещё бродит по пустынным улицам города. Всецело отдавшись исследованию прошлого этого места, он вскоре натыкается на самые кровеобильные подробности и навлекает на себя проклятие, которое и стало причиной смерти его супруги.

Качество: HDRip-AVC
Формат: MKV
Видео кодек: H.264
Аудио кодек: AC3
Видео: 1024х428 (2.40:1), 2141 kbps, 0.204 bit/pixel
Аудио#1: Русский: AC3, 48 kHz, 6 ch, 448 kbps - Профессиональный (многоголосый закадровый) (Blu-Ray EUR )
Аудио#2: Украинский: AC3, 48 kHz, 6 ch, 384 kbps - Многоголосый закадровый (ТакТреба Продакшн)
Аудио#3: English: AC3, 48 kHz, 6 ch, 448 kbps - Оригинал
Релиз от: winchester00100010
x264 [info]: profile High, level 4.1
x264 [info]: frame I:1153 Avg QP:15.25 size: 62056
x264 [info]: frame P:27323 Avg QP:18.08 size: 23275
x264 [info]: frame B:103163 Avg QP:20.19 size: 7365

Общее
Уникальный идентификатор : 175679542883161464407464558988764357451 (0x842AA633A45964CC9292FD22F97FA34B)
Полное имя : E:\Торрент файлы раздач вместе с фильмами\Dead.Silence.2007.HDRip-AVC.mkv
Формат : Matroska
Версия формата : Version 2
Размер файла : 2,19 Гбайт
Продолжительность : 1 ч. 31 м.
Общий поток : 3420 Кбит/сек
Дата кодирования : UTC 2018-06-29 17:39:19
Программа кодирования : mkvmerge v7.8.0 ('River Man') 32bit built on Apr 3 2015 12:11:22
Библиотека кодирования : libebml v1.3.1 + libmatroska v1.4.2

Видео
Идентификатор : 1
Формат : AVC
Формат/Информация : Advanced Video Codec
Профиль формата : High@L4.1
Настройки формата : CABAC / 12 Ref Frames
Параметр CABAC формата : Да
Параметр RefFrames формата : 12 кадров
Идентификатор кодека : V_MPEG4/ISO/AVC
Продолжительность : 1 ч. 31 м.
Битрейт : 2141 Кбит/сек
Ширина : 1024 пикселя
Высота : 428 пикселей
Соотношение сторон : 2,40:1
Режим частоты кадров : Постоянный
Частота кадров : 23,976 (24000/1001) кадра/сек
Цветовое пространство : YUV
Субдискретизация насыщенности : 4:2:0
Битовая глубина : 8 бит
Тип развёртки : Прогрессивная
Бит/(Пиксели*Кадры) : 0.204
Размер потока : 1,32 Гбайт (61%)
Библиотека кодирования : x264 core 155 r2901 7d0ff22
Настройки программы : cabac=1 / ref=12 / deblock=1:-3:-3 / analyse=0x3:0x113 / me=umh / subme=10 / psy=1 / psy_rd=1.00:0.15 / mixed_ref=1 / me_range=32 / chroma_me=1 / trellis=2 / 8x8dct=1 / cqm=0 / deadzone=21,11 / fast_pskip=0 / chroma_qp_offset=-3 / threads=12 / lookahead_threads=3 / sliced_threads=0 / nr=0 / decimate=0 / interlaced=0 / bluray_compat=0 / constrained_intra=0 / bframes=10 / b_pyramid=2 / b_adapt=2 / b_bias=0 / direct=3 / weightb=1 / open_gop=0 / weightp=2 / keyint=240 / keyint_min=23 / scenecut=40 / intra_refresh=0 / rc_lookahead=40 / rc=2pass / mbtree=0 / bitrate=2141 / ratetol=1.0 / qcomp=0.60 / qpmin=0 / qpmax=69 / qpstep=4 / cplxblur=20.0 / qblur=0.5 / vbv_maxrate=14000 / vbv_bufsize=14000 / nal_hrd=none / filler=0 / ip_ratio=1.40 / pb_ratio=1.30 / aq=1:1.00
Язык : English
Default : Да
Forced : Нет
Statistics Tags Issue : mkvmerge v22.0.0 ('At The End Of The World') 64-bit 2018-06-29 15:28:27 / mkvmerge v7.8.0 ('River Man') 32bit built on Apr 3 2015 12:11:22 2018-06-29 17:39:19
FromStats_BitRate : 2137947
FromStats_Duration : 01:31:30.443000000
FromStats_FrameCount : 131639
FromStats_StreamSize : 1467285117

Аудио #1
Идентификатор : 2
Формат : AC-3
Формат/Информация : Audio Coding 3
Идентификатор кодека : A_AC3
Продолжительность : 1 ч. 31 м.
Вид битрейта : Постоянный
Битрейт : 448 Кбит/сек
Каналы : 6 каналов
Расположение каналов : Front: L C R, Side: L R, LFE
Частота : 48,0 КГц
Частота кадров : 31,250 кадров/сек (1536 SPF)
Битовая глубина : 16 бит
Метод сжатия : С потерями
Размер потока : 293 Мбайт (13%)
Заголовок : Многоголосый закадровый (Blu-Ray EUR)
Язык : Russian
ServiceKind/String : Complete Main
Default : Да
Forced : Да

Аудио #2
Идентификатор : 3
Формат : AC-3
Формат/Информация : Audio Coding 3
Идентификатор кодека : A_AC3
Продолжительность : 1 ч. 31 м.
Вид битрейта : Постоянный
Битрейт : 384 Кбит/сек
Каналы : 6 каналов
Расположение каналов : Front: L C R, Side: L R, LFE
Частота : 48,0 КГц
Частота кадров : 31,250 кадров/сек (1536 SPF)
Битовая глубина : 16 бит
Метод сжатия : С потерями
Размер потока : 251 Мбайт (11%)
Заголовок : ТакТреба Продакшн
Язык : Ukrainian
ServiceKind/String : Complete Main
Default : Нет
Forced : Нет

Аудио #3
Идентификатор : 4
Формат : AC-3
Формат/Информация : Audio Coding 3
Идентификатор кодека : A_AC3
Продолжительность : 1 ч. 31 м.
Вид битрейта : Постоянный
Битрейт : 448 Кбит/сек
Каналы : 6 каналов
Расположение каналов : Front: L C R, Side: L R, LFE
Частота : 48,0 КГц
Частота кадров : 31,250 кадров/сек (1536 SPF)
Битовая глубина : 16 бит
Метод сжатия : С потерями
Размер потока : 293 Мбайт (13%)
Заголовок : Original English
Язык : English
ServiceKind/String : Complete Main
Default : Нет
Forced : Нет

piratbit.org



Скачать Мертвая тишина через торрент https://b.radikal.ru/b21/1806/26/33a99ae45d02.jpg Скачать фильм Мертвая тишина через торрент бесплантно в хорошем качестве Описание: Молодая пара, Джемми и Лиза, решили начать новую жизнь в маленьком городке вдали от суеты огромных мегаполисов. Только ... 10 10 7
Info! Золотая раздача, скачанное не засчитывается.
Торрент: Зарегистрирован [2018-06-30 12:14] · скачан: 94 раз
Статус: √ проверено
Размер: 2.19 GB
Как cкачать? Как скачать Мертвая тишина через торрент | qTorrent

% Раздел Тема Автор DL S | L
Фильмы [HD 720p, 1080p] (Хороший звук DUB, MVO) [ 12.23 GB ] Мертвая тишина / Dead Silence [2006 BDRip 1080p]MVOOriginalSubs Assasinca Скачать
1 | 0
Фильмы [HD 720p, 1080p] (Хороший звук DUB, MVO) [ 27.83 GB ] Мертвая тишина / Dead Silence [BD50 / 1080p] [2007 Blu-ray disc] MVO Sub eng + original eng VintMosina Скачать
1 | 0
Фильмы 2006-2008 [ 2.17 GB ] Мертвая тишина / Dead Silence [2007 HDRip-AVC MVO] Андрей1060 Скачать
1 | 0
Фильмы 2006-2008 [ 1.75 GB ] Мертвая тишина / Dead Silence [2007 HDRip] nitles666 Скачать
1 | 0


Последний раз редактировалось: winchester00100010 (2018-06-30 20:50), всего редактировалось 1 раз

28-11-2019 20:33  

Отключить всю рекламу на сайте

30-06-2018 12:18 Мертвая тишина Скачать торрент  

Всем приятного просмотра))piratbit.org



30-06-2018 20:52 Мертвая тишина Скачать торрент  

Стою на раздаче не вечно, так что, скачавшим данный релиз просьба, стойте на раздаче как можно дольше, дайте раскрутиться раздаче, благодарю за понимание))piratbit.org



    Дорогой пользователь! Огромная просьба, поблагодарите релизера, оцените раздачу и оставьте свои комментарий, если Вы скачали Мертвая тишина через торрент бесплатно! Внесите свою лепту в развитие PiratBit!
    Комментировать посты могут только пользователи прошедшие не сложную регистрацию
    Показать сообщения:    

    Мертвая тишина через торрент
    Скачать бесплатно Мертвая тишина
    Мертвая тишина скачать торрент
    Мертвая тишина смотреть онлайн
    Cкачать фильм Мертвая тишина бесплатно
    Мертвая тишина скачать торрент в хорошем качестве
    Мертвая тишина смотреть онлайн бесплатно в хорошем качестве


    Вы не можете начинать темы
    Вы не можете отвечать на сообщения
    Вы не можете редактировать свои сообщения
    Вы не можете удалять свои сообщения
    Вы не можете голосовать в опросах
    Вы не можете прикреплять файлы к сообщениям
    Вы можете скачивать файлы