Доктор Стрэндж

Лицензия

Добыча

Дубляж

Уэнсдэй

1 сезон

Тор

Дубляж

В эфире

Дубляж

Там, где раки поют

MVO

Властелин колец

1 сезон

Deluxe

pack

Рекомендуем

30

Пиратка

ВАЖНО

ВАЖНО

Ghostwire

Пиратка

jed

RePack

nioh2

RePack

RDR2

RePack

NEED FOR SPEED™ PAYBACK

RePack

скачать торрент

Кинопоиск HD

Острые козырьки 6 сезон

6 сезон

FAR CRY 6

RePack

скачать торрент

Лицензия

скачать торрент

MVO

1

1 сезон

скачать торрент

1 сезон

скачать торрент

Лицензия

  

Медведь / The Bear / L' Ours (Жан-Жак Анно / Jean-Jacques Annaud) [1988 г., драма, приключения, семейный, BDRip 1080p, HEVC, Профессиональный (одноголосый)]

Смотреть онлайн | Скачать   

05-07-2018 14:32 Медведь Скачать торрент  

Медведь / The Bear / L' Ours
Год выпуска: 1988
Страна: Франция, США
Жанр: драма, приключения, семейный
Продолжительность: 01:36:40
Перевод: Профессиональный (одноголосый)

Режиссер: Жан-Жак Анно / Jean-Jacques Annaud

rating

В ролях: медведь Барт, медведь Юк, Чеки Карио, Джек Уоллес, Андре Лакомб

Описание: Среди прекрасных и величественных пейзажей Британской Колумбии случилась трогательная история о медвежонке, потерявшем свою мать и предоставленным самому себе, в то время как двое охотников продолжают рыскать по лесу в поисках добычи.

Судьба сводит вместе осиротевшего малыша и огромного раненого медведя. Непросто складываются их взаимоотношения, но охотники с ружьями и злыми собаками оказываются куда страшнее. Столкновение людей и животных неизбежно.
А зритель фильма оказывается в «медвежьей шкуре» и наблюдает за людьми с позиции главного героя.

Качество: BDRip 1080p
Формат: MKV
Видео кодек: H.265
Аудио кодек: DTS
Видео: 1920x816, 23,976 кадр/сек, 4416 Кбит/сек Main@L4.1@High 8 bit
Аудио#1: Russian DTS 5.1 / 48 kHz / 1509 kbps / 16-bit
Релиз от: ADVOKAT69Семпл
скриншот  ,скриншот  ,скриншот  ,скриншот  ,

Общее
Уникальный идентификатор : 252646451440815860092189594416378448069 (0xBE11EFC626D2D314BCFD4443181288C5)
Полное имя : F:\КИНО\HEVC\Медведь HEVC advokat69.mkv
Формат : Matroska
Версия формата : Version 4 / Version 2
Размер файла : 4,00 Гбайт
Продолжительность : 1 ч. 36 м.
Общий поток : 5927 Кбит/сек
Дата кодирования : UTC 2018-07-04 18:41:42
Программа кодирования : mkvmerge v9.2.0 ('Photograph') 64bit
Библиотека кодирования : libebml v1.3.3 + libmatroska v1.4.4
Encoding Gui : Hybrid 2017.05.06.1

Видео
Идентификатор : 1
Формат : HEVC
Формат/Информация : High Efficiency Video Coding
Профиль формата : Main@L4.1@High
Идентификатор кодека : V_MPEGH/ISO/HEVC
Продолжительность : 1 ч. 36 м.
Битрейт : 4416 Кбит/сек
Ширина : 1920 пикселей
Высота : 816 пикселей
Соотношение сторон : 2,35:1
Режим частоты кадров : Постоянный
Частота кадров : 23,976 (24000/1001) кадра/сек
Цветовое пространство : YUV
Субдискретизация насыщенности : 4:2:0
Битовая глубина : 8 бит
Бит/(Пиксели*Кадры) : 0.118
Размер потока : 2,98 Гбайт (75%)
Библиотека кодирования : x265 2.5+5-0b3ba15b33ea:[Windows][GCC 7.2.0][64 bit] 8bit+10bit+12bit
Настройки программы : cpuid=1050111 / frame-threads=2 / numa-pools=4 / wpp / no-pmode / no-pme / no-psnr / no-ssim / log-level=2 / input-csp=1 / input-res=1920x816 / interlace=0 / total-frames=0 / level-idc=41 / high-tier=1 / uhd-bd=0 / ref=3 / no-allow-non-conformance / no-repeat-headers / annexb / no-aud / no-hrd / info / hash=0 / no-temporal-layers / open-gop / min-keyint=23 / keyint=250 / bframes=4 / b-adapt=0 / b-pyramid / bframe-bias=0 / rc-lookahead=15 / lookahead-slices=5 / scenecut=40 / no-intra-refresh / ctu=64 / min-cu-size=8 / no-rect / no-amp / max-tu-size=32 / tu-inter-depth=1 / tu-intra-depth=1 / limit-tu=0 / rdoq-level=0 / dynamic-rd=0.00 / no-ssim-rd / signhide / no-tskip / nr-intra=0 / nr-inter=0 / no-constrained-intra / strong-intra-smoothing / max-merge=2 / limit-refs=3 / no-limit-modes / me=1 / subme=2 / merange=57 / temporal-mvp / weightp / no-weightb / no-analyze-src-pics / deblock=-3:-3 / no-sao / no-sao-non-deblock / rd=2 / no-early-skip / rskip / fast-intra / no-tskip-fast / no-cu-lossless / no-b-intra / rdpenalty=0 / psy-rd=2.00 / psy-rdoq=0.00 / no-rd-refine / analysis-reuse-mode=0 / no-lossless / cbqpoffs=0 / crqpoffs=0 / rc=crf / crf=20.0 / qcomp=0.60 / qpstep=4 / stats-write=0 / stats-read=0 / vbv-maxrate=50000 / vbv-bufsize=50000 / vbv-init=0.9 / crf-max=0.0 / crf-min=0.0 / ipratio=1.40 / pbratio=1.30 / aq-mode=1 / aq-strength=1.00 / cutree / zone-count=0 / no-strict-cbr / qg-size=32 / no-rc-grain / qpmax=69 / qpmin=0 / no-const-vbv / sar=0 / overscan=0 / videoformat=5 / range=0 / colorprim=2 / transfer=2 / colormatrix=1 / chromaloc=0 / display-window=0 / max-cll=0,0 / min-luma=0 / max-luma=255 / log2-max-poc-lsb=8 / vui-timing-info / vui-hrd-info / slices=1 / opt-qp-pps / opt-ref-list-length-pps / no-multi-pass-opt-rps / scenecut-bias=0.05 / no-opt-cu-delta-qp / no-aq-motion / no-hdr / no-hdr-opt / no-dhdr10-opt / analysis-reuse-level=5 / scale-factor=0 / refine-intra=0 / refine-inter=0 / refine-mv=0 / no-limit-sao / ctu-info=0
Default : Да
Forced : Да
Цветовой диапазон : Limited
Коэффициенты матрицы : BT.709

Аудио
Идентификатор : 2
Формат : DTS
Формат/Информация : Digital Theater Systems
Идентификатор кодека : A_DTS
Продолжительность : 1 ч. 36 м.
Вид битрейта : Постоянный
Битрейт : 1509 Кбит/сек
Каналы : 6 каналов
Расположение каналов : Front: L C R, Side: L R, LFE
Частота : 48,0 КГц
Частота кадров : 93,750 кадра/сек (512 SPF)
Битовая глубина : 16 бит
Метод сжатия : С потерями
Размер потока : 1,02 Гбайт (25%)
Default : Да
Forced : Нет

Меню
00:00:00.000 : en:Chapter 1
00:08:16.537 : en:Chapter 2
00:13:26.722 : en:Chapter 3
00:26:06.606 : en:Chapter 4
00:34:16.971 : en:Chapter 5
00:39:08.763 : en:Chapter 6
00:44:54.274 : en:Chapter 7
00:52:44.536 : en:Chapter 8
01:02:05.138 : en:Chapter 9
01:13:33.492 : en:Chapter 10
01:22:20.268 : en:Chapter 11
01:25:50.019 : en:Chapter 12
01:29:59.352 : en:Chapter 13
01:32:52.858 : en:Chapter 14




28-11-2019 20:33  


Отключить вcю реклaмy на сайте, в т.ч. и в плеере онлайн просмотра!

25-07-2018 18:01 Медведь Скачать торрент  

нет мордобоя
нет крови (немножко)
история медвежонка

бедный малыш-перепугали насмерть



17-10-2018 15:57 Медведь Скачать торрент  

Сейчас бы такое нарисовали, а тогда люди снимали фильм и душу вкладывали в игру. Браво, Спасибо.



    Дорогой пользователь! Огромная просьба, поблагодарите релизера, оцените раздачу и оставьте свои комментарий, если Вы скачали Медведь через торрент бесплатно!!
    Комментировать посты могут только пользователи прошедшие не сложную регистрацию
    Показать сообщения:    


    Медведь через торрент
    Скачать бесплатно Медведь
    Медведь скачать торрент
    Медведь смотреть онлайн
    Cкачать фильм Медведь бесплатно
    Медведь скачать торрент в хорошем качестве
    Медведь смотреть онлайн бесплатно в хорошем качестве
    Вы не можете начинать темы
    Вы не можете отвечать на сообщения
    Вы не можете редактировать свои сообщения
    Вы не можете удалять свои сообщения
    Вы не можете голосовать в опросах
    Вы не можете прикреплять файлы к сообщениям
    Вы можете скачивать файлы
    Медведь / The Bear / L' Ours [1988 г., драма, приключения, семейный, BDRip 1080p, HEVC, Профессиональный ] смотреть онлайн, скачать торрент picoco.icu