Достать ножи: Стеклянная луковица

MVO

Добыча

Дубляж

Уэнсдэй

1 сезон

Тор

Дубляж

13 клиническая

1 сезон

Жестокая ночь

MVO

Одни из нас

1 сезон

Deluxe

pack

Рекомендуем

30

Пиратка

ВАЖНО

ВАЖНО

Ghostwire

Пиратка

jed

RePack

nioh2

RePack

RDR2

RePack

NEED FOR SPEED™ PAYBACK

RePack

скачать торрент

Кинопоиск HD

Острые козырьки 6 сезон

6 сезон

FAR CRY 6

RePack

скачать торрент

Лицензия

скачать торрент

MVO

1

1 сезон

скачать торрент

1 сезон

скачать торрент

Лицензия

  

Братья из Гримсби / Grimsby (Луи Летерье) [2016, Боевик, комедия, UHD WEB-DL 2160p] AVO+Дубляж

Братья из Гримсби через торрент piratbit.org

Размер: 17.34 GB | Добавлен: 4 года 6 мес. назад | Торрент скачан:33 раза
Смотреть онлайн | Скачать | Поддержите нас   

06-07-2018 01:36 Братья из Гримсби Скачать торрент  

Братья из Гримсби / Grimsby
Год выпуска: 2016
Страна: Великобритания, Австралия
Жанр: Боевик, комедия
Продолжительность: 01:23:35
Перевод: Дублированный, Авторский
Субтитры: Русские (Форсированные, полные), английские (Full, SDH, SDH Colored)

Режиссер: Луи Летерье

rating

В ролях:

Саша Барон Коэн, Марк Стронг, Ребел Уилсон, Пенелопа Крус, Айла Фишер, Скотт Эдкинс, Иэн МакШейн, Габури Сидибе, Аннабелль Уоллис, Дэвид Хэрвуд, Рикки Томлинсон, Джонни Вегас, Сэм Хэзелдайн, Фредди Краудер, Джон-Джон Локвуд, Шон Томас, Клаудия Эдшид, Лекс Шрэпнел

Описание:

Сверхсекретная операция, которую выполняет образцовый спецагент, с треском провалена из-за некстати свалившегося на его голову неадекватного брата — оголтелого футбольного фаната и полного беспредельщика. Теперь герою предстоит спасти свою жизнь и вдобавок планету от нависшей над ней угрозы — практически невыполнимая задача в тандеме с вновь приобретенным родственником.

Качество: UHD WEB-DL 2160p
Формат: MKV

Видео: HEVC HDR, 26.2 Mбит/с, 3840x1608, 23.976 кадр/с
Аудио#1: Русский (АС3, 6 ch, 640 Кбит/с, 48.0 KHz) / Дубляж (Blu-ray CEE)
Аудио#2: Русский (АС3, 6 ch, 640 Кбит/с, 48.0 KHz) / Авторский (В.Котов)
Аудио#3: Английский (DTS-HD MA, 6 ch, 2312 Кбит/с, 48.0 KHz)
скриншот  скриншот  скриншот  скриншот  скриншот  

General
Unique ID : 84494746276323739933014811800571643197 (0x3F9118A08B1A2018E6C11ADA89E2853D)
Complete name : C:UsersPublicVideosSample VideosFilmyThe.Brothers.Grimsby.2016.2160p.HDR.WEB-DL.MediaClub.mkv
Format : Matroska
Format version : Version 4 / Version 2
File size : 17.3 GiB
Duration : 1 h 23 min
Overall bit rate : 29.7 Mb/s
Encoded date : UTC 2018-07-02 16:17:17
Writing application : mkvmerge v19.0.0 ('Brave Captain') 64-bit
Writing library : libebml v1.3.5 + libmatroska v1.4.8
Cover : Yes
Attachments : cover.jpg

Video
ID : 1
Format : HEVC
Format/Info : High Efficiency Video Coding
Commercial name : HDR10
Format profile : Main 10@L5@Main
Codec ID : V_MPEGH/ISO/HEVC
Duration : 1 h 23 min
Bit rate : 26.2 Mb/s
Width : 3 840 pixels
Height : 1 608 pixels
Display aspect ratio : 2.40:1
Frame rate mode : Constant
Frame rate : 23.976 (24000/1001) FPS
Color space : YUV
Chroma subsampling : 4:2:0
Bit depth : 10 bits
Bits/(Pixel*Frame) : 0.177
Stream size : 15.2 GiB (88%)
Title : WEB-DL.2160p.HDR by Silverok
Default : Yes
Forced : No
Color range : Limited
Color primaries : BT.2020
Transfer characteristics : PQ
Matrix coefficients : BT.2020 non-constant
Mastering display color primaries : Display P3
Mastering display luminance : min: 0.0050 cd/m2, max: 3999 cd/m2
Maximum Content Light Level : 4000 cd/m2
Maximum Frame-Average Light Level : 1000 cd/m2

Audio #1
ID : 2
Format : AC-3
Format/Info : Audio Coding 3
Codec ID : A_AC3
Duration : 1 h 23 min
Bit rate mode : Constant
Bit rate : 640 kb/s
Channel(s) : 6 channels
Channel positions : Front: L C R, Side: L R, LFE
Sampling rate : 48.0 kHz
Frame rate : 31.250 FPS (1536 SPF)
Bit depth : 16 bits
Compression mode : Lossy
Stream size : 380 MiB (2%)
Title : Дубляж (Blu-ray CEE)
Language : Russian
Service kind : Complete Main
Default : Yes
Forced : No

Audio #2
ID : 3
Format : AC-3
Format/Info : Audio Coding 3
Codec ID : A_AC3
Duration : 1 h 23 min
Bit rate mode : Constant
Bit rate : 640 kb/s
Channel(s) : 6 channels
Channel positions : Front: L C R, Side: L R, LFE
Sampling rate : 48.0 kHz
Frame rate : 31.250 FPS (1536 SPF)
Bit depth : 16 bits
Compression mode : Lossy
Stream size : 381 MiB (2%)
Title : Авторский (В.Котов)
Language : Russian
Service kind : Complete Main
Default : No
Forced : No

Audio #3
ID : 4
Format : DTS
Format/Info : Digital Theater Systems
Format profile : MA / Core
Codec ID : A_DTS
Duration : 1 h 23 min
Bit rate mode : Variable / Constant
Bit rate : 2 312 kb/s / 1 509 kb/s
Channel(s) : 6 channels
Channel positions : Front: L C R, Side: L R, LFE
Sampling rate : 48.0 kHz
Frame rate : 93.750 FPS (512 SPF)
Bit depth : 16 bits
Compression mode : Lossless / Lossy
Stream size : 1.34 GiB (8%)
Language : English
Default : No
Forced : No

Text #1
ID : 5
Format : UTF-8
Codec ID : S_TEXT/UTF8
Codec ID/Info : UTF-8 Plain Text
Duration : 1 h 21 min
Bit rate : 3 b/s
Count of elements : 46
Stream size : 2.15 KiB (0%)
Title : Forced
Language : Russian
Default : Yes
Forced : No

Text #2
ID : 6
Format : UTF-8
Codec ID : S_TEXT/UTF8
Codec ID/Info : UTF-8 Plain Text
Duration : 1 h 21 min
Bit rate : 100 b/s
Count of elements : 1122
Stream size : 60.4 KiB (0%)
Title : Full
Language : Russian
Default : No
Forced : No

Text #3
ID : 7
Format : UTF-8
Codec ID : S_TEXT/UTF8
Codec ID/Info : UTF-8 Plain Text
Duration : 1 h 22 min
Bit rate : 63 b/s
Count of elements : 1134
Stream size : 38.1 KiB (0%)
Title : Full
Language : English
Default : No
Forced : No

Text #4
ID : 8
Format : UTF-8
Codec ID : S_TEXT/UTF8
Codec ID/Info : UTF-8 Plain Text
Duration : 1 h 22 min
Bit rate : 70 b/s
Count of elements : 1382
Stream size : 42.7 KiB (0%)
Title : SDH
Language : English
Default : No
Forced : No

Text #5
ID : 9
Format : UTF-8
Codec ID : S_TEXT/UTF8
Codec ID/Info : UTF-8 Plain Text
Duration : 1 h 22 min
Bit rate : 95 b/s
Count of elements : 1382
Stream size : 57.2 KiB (0%)
Title : SDH Colored
Language : English
Default : No
Forced : No




Скачать Братья из Гримсби через торрент https://c.radikal.ru/c36/1805/20/779aabe5cbd9.png Скачать, смотреть онлайн Братья из Гримсби бесплантно в хорошем качестве Описание: Сверхсекретная операция, которую выполняет образцовый спецагент, с треском провалена из-за некстати свалившегося на его голову ... 10 10 6
Торрент: Зарегистрирован [2018-07-06 01:36] · скачан: 33 раз
Статус: √ проверено
Размер: 17.34 GB
Как cкачать? Как скачать Братья из Гримсби через торрент | UTorrent

28-11-2019 20:33  


Отключить вcю реклaмy на сайте, в т.ч. и в плеере онлайн просмотра!

    Дорогой пользователь! Огромная просьба, поблагодарите релизера, оцените раздачу и оставьте свои комментарий, если Вы скачали Братья из Гримсби через торрент бесплатно!!
    Комментировать посты могут только пользователи прошедшие не сложную регистрацию
    Показать сообщения:    


    Братья из Гримсби через торрент
    Скачать бесплатно Братья из Гримсби
    Братья из Гримсби скачать торрент
    Братья из Гримсби смотреть онлайн
    Cкачать фильм Братья из Гримсби бесплатно
    Братья из Гримсби скачать торрент в хорошем качестве
    Братья из Гримсби смотреть онлайн бесплатно в хорошем качестве
    Вы не можете начинать темы
    Вы не можете отвечать на сообщения
    Вы не можете редактировать свои сообщения
    Вы не можете удалять свои сообщения
    Вы не можете голосовать в опросах
    Вы не можете прикреплять файлы к сообщениям
    Вы можете скачивать файлы
    Братья из Гримсби / Grimsby [2016, Боевик, комедия, UHD WEB-DL 2160p] AVO+Дубляж смотреть онлайн, скачать торрент picoco.icu