Доктор Стрэндж

Лицензия

Добыча

MVO

Дом дракона

1 сезон

Тор

Лицензия

Мэверик

Лицензия

Там, где раки поют

MVO

Властелин колец

1 сезон

Ultimate

pack

Рекомендуем

30

Repack

ВАЖНО

ВАЖНО

Ghostwire

RePack

jed

RePack

nioh2

RePack

RDR2

RePack

NEED FOR SPEED™ PAYBACK

RePack

скачать торрент

Кинопоиск HD

Острые козырьки 6 сезон

6 сезон

FAR CRY 6

RePack

скачать торрент

Лицензия

скачать торрент

MVO

1

1 сезон

скачать торрент

1 сезон

скачать торрент

Лицензия

  

Пусть светит (Евгений Карелов) [1960, СССР, короткометражка, драма, военный, SATRip от AVP Studio]

Пусть светит через торрент piratbit.org

Размер: 373 MB | Добавлен: 4 года 2 мес. назад | Торрент скачан:12 раз
Смотреть онлайн Пусть светит | Скачать   

06-07-2018 08:23 Пусть светит Скачать торрент  

Пусть светит
Страна: СССР
Производство: Центральная студия телевидения

Жанр: короткометражка, драма, военный
Год выпуска: 1960
Продолжительность: 00:35:06

Перевод: Не требуется
Cубтитры: нет
Оригинальная аудиодорожка: русский

Режиссер: Евгений Карелов

В ролях:
Леонид Харитонов, Ольга Наровчатова, Евгения Мельникова, Екатерина Мазурова, Николай Новлянский, Михаил Ульянов, Гарри Дунц, Владимир Селезнёв (III), Павел Шальнов, Ксана Сивова, Дмитрий Матвеев...
Об актёрах подробней

Описание:
По одноименной повести А.Гайдара.
К населённому пункту приближаются белые войска. Небольшой гарнизон красноармейцев решает эвакуировать мирных жителей и раненого бойца в безопасное место. Это ответственное дело поручается молодому комсомольцу Ефимке. Подводы выезжают из села и едут по лесным дорогам, но сбиваются с пути. Ночью на привале Ефимка, его мать и Верка говорят о будущем, о доме в сорок этажей с башней, звездой и прожектором - пусть светит!.. Ефимка решает пробраться к отряду красноармейцев. В лесу он наталкивается на белых, в перестрелке убивает белого офицера. И когда на беженцев нападают белые, появляется красный отряд. Его привёл Ефимка.

Исходник: DVB
Качество видео: SATRip
Формат видео: AVI

Видео: 704x528 (4:3), 25,000 кадров/сек, XviD ~ 1285 kbps avg, 0.138 bit/pixel
Аудио: 48 kHz, Dolby Digital AC3 2.0, 192 kbps

Раздача от:
Общее
Полное имя : Pust.svetit.1960.SATRip_[New-team]_by_AVP_Studio.avi
Формат : AVI
Формат/Информация : Audio Video Interleave
Размер файла : 373 Мбайт
Продолжительность : 35 м. 5 с.
Общий поток : 1487 Кбит/сек
Программа кодирования : VirtualDubMod 1.5.10.3 | www.virtualdub-fr.org || (build 2550/release)
Библиотека кодирования : VirtualDubMod build 2550/release

Видео
Идентификатор : 0
Формат : MPEG-4 Visual
Профиль формата : Advanced Simple@L5
Настройки формата : BVOP1 / Custom Matrix
Параметр BVOP формата : 1
Параметр QPel формата : Нет
Параметр GMC формата : Без точки перехода
Параметр матрицы формата : Выборочная
Идентификатор кодека : XVID
Идентификатор кодека/Подсказка : XviD
Продолжительность : 35 м. 5 с.
Битрейт : 1285 Кбит/сек
Ширина : 704 пикселя
Высота : 528 пикселей
Соотношение сторон : 4:3
Частота кадров : 25,000 кадров/сек
Цветовое пространство : YUV
Субдискретизация насыщенности : 4:2:0
Битовая глубина : 8 бит
Тип развёртки : Прогрессивная
Метод сжатия : С потерями
Бит/(Пиксели*Кадры) : 0.138
Размер потока : 322 Мбайт (86%)
Библиотека кодирования : XviD 73

Аудио
Идентификатор : 1
Формат : AC-3
Формат/Информация : Audio Coding 3
Идентификатор кодека : 2000
Продолжительность : 35 м. 5 с.
Вид битрейта : Постоянный
Битрейт : 192 Кбит/сек
Каналы : 2 канала
Расположение каналов : Front: L R
Частота : 48,0 КГц
Частота кадров : 31,250 кадров/сек (1536 SPF)
Битовая глубина : 16 бит
Метод сжатия : С потерями
Размер потока : 48,2 Мбайт (13%)
Выравнивание : Разделение по промежуткам
Продолжительность промежутка : 40 мс. (1,00 видеокадр)
Время предзагрузки промежутка : 500 мс



Скачать Пусть светит через торрент http://picplus.ru/img/1807/06/7714bc78.png Скачать, смотреть онлайн Пусть светит бесплантно в хорошем качестве Описание:По одноименной повести А.Гайдара.К населённому пункту приближаются белые войска. Небольшой гарнизон красноармейцев решает ... 10 10 1
Info! Золотая раздача, скачанное не засчитывается.
Торрент: Зарегистрирован [2018-07-06 08:23] · скачан: 12 раз
Статус: √ проверено
Размер: 373 MB
Как cкачать? Как скачать Пусть светит через торрент | UTorrent

% Раздел Тема Автор DL S | L
Кино СССР [ 372 MB ] Пусть светит | | SATRip-AVC от AVP Studio AVP Studio Скачать
1 | 0

28-11-2019 20:33  

Отключить вcю реклaмy на сайте

    Дорогой пользователь! Огромная просьба, поблагодарите релизера, оцените раздачу и оставьте свои комментарий, если Вы скачали Пусть светит через торрент бесплатно!!
    Комментировать посты могут только пользователи прошедшие не сложную регистрацию
    Показать сообщения:    


    Пусть светит через торрент
    Скачать бесплатно Пусть светит
    Пусть светит скачать торрент
    Пусть светит смотреть онлайн
    Cкачать фильм Пусть светит бесплатно
    Пусть светит скачать торрент в хорошем качестве
    Пусть светит смотреть онлайн бесплатно в хорошем качестве
    Вы не можете начинать темы
    Вы не можете отвечать на сообщения
    Вы не можете редактировать свои сообщения
    Вы не можете удалять свои сообщения
    Вы не можете голосовать в опросах
    Вы не можете прикреплять файлы к сообщениям
    Вы можете скачивать файлы