Достать ножи: Стеклянная луковица

MVO

Добыча

Дубляж

Уэнсдэй

1 сезон

Тор

Дубляж

13 клиническая

1 сезон

Жестокая ночь

MVO

Одни из нас

1 сезон

Deluxe

pack

Рекомендуем

30

Пиратка

ВАЖНО

ВАЖНО

Ghostwire

Пиратка

jed

RePack

nioh2

RePack

RDR2

RePack

NEED FOR SPEED™ PAYBACK

RePack

скачать торрент

Кинопоиск HD

Острые козырьки 6 сезон

6 сезон

FAR CRY 6

RePack

скачать торрент

Лицензия

скачать торрент

MVO

1

1 сезон

скачать торрент

1 сезон

скачать торрент

Лицензия

  

В сердце моря / In the Heart of the Sea (Рон Ховард) [2015, боевик, триллер, драма, UHD BDRip 2160p SDR] Дубляж (rus, ukr)

В сердце моря через торрент piratbit.org

Размер: 41.19 GB | Добавлен: 4 года 6 мес. назад | Торрент скачан:23 раза
Смотреть онлайн | Скачать | Поддержите нас   

08-07-2018 05:04 В сердце моря Скачать торрент  

В сердце моря / In the Heart of the Sea

Год выпуска: 2015
Страна: США, Австралия, Испания
Жанр: боевик, триллер, драма, приключения, биография, история
Продолжительность: 02:01:43
Перевод: Дублированный
Субтитры: Русские, английские, украинские
Режиссер: Рон Ховард
В ролях:

Крис Хемсворт (Owen Chase), Бенджамин Уокер (George Pollard), Киллиан Мёрфи (Matthew Joy), Брендан Глисон (Tom Nickerson), Бен Уишоу (Herman Melville), Мишель Фэйрли (Mrs. Nickerson), Том Холланд (Thomas Nickerson), Пол Андерсон (Caleb Chappel), Фрэнк Диллэйн (Henry Coffin), Джозеф Моул (Benjamin Lawrence), Эдвард Эшли (Barzillai Ray), Сэм Кили (Ramsdell)
Описание:
В 1819 году американский корабль «Эссекс» с командой из двух десятков человек на борту отправился из порта в штате Массачусетс на китобойный промысел. Осенью 1820-го охота была прервана атакой гигантского кашалота на судно, в результате чего морякам пришлось пересесть в шлюпки. В течение трех с лишним месяцев они боролись за выживание посреди океана...
Рейтинг:
rating
MPAA: PG-13 - Детям до 13 лет просмотр не желателен
Качество: UHD BDRip 2160p SDR
Формат: MKV
Видео: MPEG-4 AVC, 42400 Кбит/с, 3840x2160, 23.976 кадр/с
Аудио:
#1 - Русский / AC3 / 48 KHz / 5.1 ch / 448 Kbps (Дубляж - BD Eur)
#2 - Украинский / AC3 / 48 KHz / 2 ch / 192 Kbps (Дубляж)
#3 - Английский / AC3 / 48 KHz / 5.1 ch / 640 Kbps (Original)
#4 - Английский / Atmos / TrueHD / 48 KHz / 7.1 ch / 4703 Kbps (Original)
Навигация по главам: есть
Общее
Уникальный идентификатор : 251990180576652972038498747082905378547 (0xBD938B1F4DD7DCAA88F3961981AE5EF3)
Полное имя : D:\Новая папкаVid\Новая_Мои раздачи\In.the.Heart.of.the.Sea.2015.2160p.BluRay.SDR.8bit.UHD.BDRip.x264.Master5.mkv
Формат : Matroska
Версия формата : Version 4 / Version 2
Размер файла : 41,2 Гбайт
Продолжительность : 2 ч. 1 м.
Режим общего битрейта : Переменный
Общий поток : 48,5 Мбит/сек
Название фильма : In.the.Heart.of.the.Sea.2015.2160p.BluRay.SDR.8bit.UHD.BDRip.x264.Master5
Дата кодирования : UTC 2017-10-31 20:22:18
Программа кодирования : mkvmerge v8.1.0 ('Psychedelic Postcard') 32bit
Библиотека кодирования : libebml v1.3.1 + libmatroska v1.4.2
Обложка : Yes
Attachments : cover.jpg

Видео
Идентификатор : 1
Формат : AVC
Формат/Информация : Advanced Video Codec
Профиль формата : High@L5.1
Параметр CABAC формата : Да
Параметр ReFrames формата : 5 кадров
Идентификатор кодека : V_MPEG4/ISO/AVC
Продолжительность : 2 ч. 1 м.
Битрейт : 42,4 Мбит/сек
Ширина : 3840 пикселей
Высота : 2160 пикселей
Соотношение сторон : 16:9
Режим частоты кадров : Постоянный
Частота кадров : 23,976 (24000/1001) кадра/сек
Цветовое пространство : YUV
Субдискретизация насыщенности : 4:2:0
Битовая глубина : 8 бит
Тип развёртки : Прогрессивная
Бит/(Пиксели*Кадры) : 0.213
Размер потока : 36,0 Гбайт (88%)
Заголовок : In.the.Heart.of.the.Sea.2015.2160p.BluRay.SDR.8bit.UHD.BDRip.x264.Master5
Библиотека кодирования : x264 core 148 r2748 97eaef2
Настройки программы : cabac=1 / ref=5 / deblock=1:-1:-1 / analyse=0x3:0x113 / me=umh / subme=10 / psy=1 / psy_rd=1.00:0.15 / mixed_ref=1 / me_range=48 / chroma_me=1 / trellis=2 / 8x8dct=1 / cqm=0 / deadzone=21,11 / fast_pskip=1 / chroma_qp_offset=-3 / threads=36 / lookahead_threads=3 / sliced_threads=0 / nr=0 / decimate=0 / interlaced=0 / bluray_compat=0 / constrained_intra=0 / bframes=3 / b_pyramid=2 / b_adapt=2 / b_bias=0 / direct=3 / weightb=1 / open_gop=0 / weightp=2 / keyint=250 / keyint_min=23 / scenecut=40 / intra_refresh=0 / rc_lookahead=50 / rc=crf / mbtree=1 / crf=18.0 / qcomp=0.60 / qpmin=0 / qpmax=69 / qpstep=4 / ip_ratio=1.40 / aq=1:1.00
Язык : English
Default : Да
Forced : Нет

Аудио #1
Идентификатор : 2
Формат : Atmos / TrueHD
Идентификатор кодека : A_TRUEHD
Продолжительность : 2 ч. 1 м.
Вид битрейта : Переменный
Битрейт : 4703 Кбит/сек
Максимальный битрейт : 7719 Кбит/сек
Каналы : Object Based / 8 каналов
Расположение каналов : Object Based / Front: L C R, Side: L R, Back: L R, LFE
Частота : / 48,0 КГц
Частота кадров : 1200,000 кадров/сек (40 spf)
Метод сжатия : Без потерь
Задержка видео : 1 мс.
Размер потока : 4,00 Гбайт (10%)
Язык : English
Default : Нет
Forced : Нет

Аудио #2
Идентификатор : 3
Формат : AC-3
Формат/Информация : Audio Coding 3
Расширение режима : CM (complete main)
Параметр Endianness формата : Big
Идентификатор кодека : A_AC3
Продолжительность : 2 ч. 1 м.
Вид битрейта : Постоянный
Битрейт : 448 Кбит/сек
Каналы : 6 каналов
Расположение каналов : Front: L C R, Side: L R, LFE
Частота : 48,0 КГц
Частота кадров : 31,250 кадров/сек (1536 spf)
Метод сжатия : С потерями
Размер потока : 390 Мбайт (1%)
Заголовок : Дубляж - BD Eur
Язык : Russian
Default : Да
Forced : Нет

Аудио #3
Идентификатор : 4
Формат : AC-3
Формат/Информация : Audio Coding 3
Расширение режима : CM (complete main)
Параметр Endianness формата : Big
Идентификатор кодека : A_AC3
Продолжительность : 2 ч. 1 м.
Вид битрейта : Постоянный
Битрейт : 192 Кбит/сек
Каналы : 2 канала
Расположение каналов : Front: L R
Частота : 48,0 КГц
Частота кадров : 31,250 кадров/сек (1536 spf)
Метод сжатия : С потерями
Размер потока : 167 Мбайт (0%)
Заголовок : Дубляж
Язык : Ukrainian
Default : Нет
Forced : Нет

Аудио #4
Идентификатор : 5
Формат : AC-3
Формат/Информация : Audio Coding 3
Расширение режима : CM (complete main)
Параметр Endianness формата : Big
Идентификатор кодека : A_AC3
Продолжительность : 2 ч. 1 м.
Вид битрейта : Постоянный
Битрейт : 640 Кбит/сек
Каналы : 6 каналов
Расположение каналов : Front: L C R, Side: L R, LFE
Частота : 48,0 КГц
Частота кадров : 31,250 кадров/сек (1536 spf)
Метод сжатия : С потерями
Размер потока : 557 Мбайт (1%)
Заголовок : Original
Язык : English
Default : Нет
Forced : Нет

Текст #1
Идентификатор : 6
Формат : UTF-8
Идентификатор кодека : S_TEXT/UTF8
Идентификатор кодека/Информация : UTF-8 Plain Text
Продолжительность : 1 ч. 53 м.
Битрейт : 2 бит/сек
Count of elements : 35
Размер потока : 2,06 Кбайт (0%)
Заголовок : Форсированные
Язык : Russian
Default : Да
Forced : Нет

Текст #2
Идентификатор : 7
Формат : UTF-8
Идентификатор кодека : S_TEXT/UTF8
Идентификатор кодека/Информация : UTF-8 Plain Text
Продолжительность : 1 ч. 54 м.
Битрейт : 79 бит/сек
Count of elements : 1111
Размер потока : 67,0 Кбайт (0%)
Заголовок : Полные
Язык : Russian
Default : Нет
Forced : Нет

Текст #3
Идентификатор : 8
Формат : UTF-8
Идентификатор кодека : S_TEXT/UTF8
Идентификатор кодека/Информация : UTF-8 Plain Text
Продолжительность : 1 ч. 50 м.
Битрейт : 2 бит/сек
Count of elements : 31
Размер потока : 1,82 Кбайт (0%)
Заголовок : Форсированные
Язык : Ukrainian
Default : Нет
Forced : Нет

Текст #4
Идентификатор : 9
Формат : UTF-8
Идентификатор кодека : S_TEXT/UTF8
Идентификатор кодека/Информация : UTF-8 Plain Text
Продолжительность : 2 ч. 0 м.
Битрейт : 44 бит/сек
Count of elements : 1363
Размер потока : 39,4 Кбайт (0%)
Заголовок : Full (BD )
Язык : English
Default : Нет
Forced : Нет

Текст #5
Идентификатор : 10
Формат : UTF-8
Идентификатор кодека : S_TEXT/UTF8
Идентификатор кодека/Информация : UTF-8 Plain Text
Продолжительность : 2 ч. 0 м.
Битрейт : 49 бит/сек
Count of elements : 1497
Размер потока : 43,8 Кбайт (0%)
Заголовок : SDH (BD)
Язык : English
Default : Нет
Forced : Нет

Меню
00:00:00.000 : en:Chapter 1
00:12:05.516 : en:Chapter 2
00:21:17.734 : en:Chapter 3
00:33:29.966 : en:Chapter 4
00:42:35.010 : en:Chapter 5
00:51:30.712 : en:Chapter 6
01:06:43.833 : en:Chapter 7
01:13:12.012 : en:Chapter 8
01:23:21.287 : en:Chapter 9
01:33:45.870 : en:Chapter 10
01:43:20.027 : en:Chapter 11
01:52:58.772 : en:Chapter 12



Скачать В сердце моря через торрент https://a.radikal.ru/a20/1807/b4/343f36a48a67.png Скачать, смотреть онлайн В сердце моря бесплантно в хорошем качестве Описание: В 1819 году американский корабль «Эссекс» с командой из двух десятков человек на борту отправился из порта в штате Массачусетс на ... 10 10 1
Торрент: Зарегистрирован [2018-07-08 05:04] · скачан: 23 раз
Статус: √ проверено
Размер: 41.19 GB
Как cкачать? Как скачать В сердце моря через торрент | UTorrent

% Раздел Тема Автор DL S | L
Ultra HD (UHD: 2K, 4K, 8K) [ 58.43 GB ] В сердце моря / In the Heart of the Sea | Лицензия | 2160p sheker187 Скачать
1 | 0
3D Фильмы [ 16.43 GB ] В сердце моря 3Д / In the Heart of the Sea 3D | Лицензия | 1080p bober100 Скачать
1 | 0
Ultra HD (UHD: 2K, 4K, 8K) [ 53.13 GB ] В сердце моря / In the Heart of the Sea | Лицензия | 2160p sheker187 Скачать
1 | 0
Фильмы 2015 [DVDrip, WEB-DLRip, HDrip] [ 1.45 GB ] В сердце моря / In the Heart of the Sea | Лицензия | BDRip-AVC от potroks potroks Скачать
1 | 0
Фильмы [HD 720p, 1080p] (Хороший звук DUB, MVO) [ 11.54 GB ] В сердце моря / In the Heart of the Sea | DUB | 1080p от еnvy / NNNB еnvy Скачать
20 | 1
Фильмы 2015 [DVDrip, WEB-DLRip, HDrip] [ 745 MB ] В сердце моря / In the Heart of the Sea | iTunes | HDRip by _Один_777 Один 777 Скачать
1 | 0
3D Фильмы [ 25.32 GB ] В сердце моря в 3Д / In the Heart of the Sea 3D | iTunes OverUnder | 1080p serega768 Скачать
1 | 0

28-11-2019 20:33  


Отключить вcю реклaмy на сайте, в т.ч. и в плеере онлайн просмотра!

    Дорогой пользователь! Огромная просьба, поблагодарите релизера, оцените раздачу и оставьте свои комментарий, если Вы скачали В сердце моря через торрент бесплатно!!
    Комментировать посты могут только пользователи прошедшие не сложную регистрацию
    Показать сообщения:    


    В сердце моря через торрент
    Скачать бесплатно В сердце моря
    В сердце моря скачать торрент
    В сердце моря смотреть онлайн
    Cкачать фильм В сердце моря бесплатно
    В сердце моря скачать торрент в хорошем качестве
    В сердце моря смотреть онлайн бесплатно в хорошем качестве
    Вы не можете начинать темы
    Вы не можете отвечать на сообщения
    Вы не можете редактировать свои сообщения
    Вы не можете удалять свои сообщения
    Вы не можете голосовать в опросах
    Вы не можете прикреплять файлы к сообщениям
    Вы можете скачивать файлы
    В сердце моря / In the Heart of the Sea [2015, боевик, триллер, драма, UHD BDRip 2160p SDR] Дубляж смотреть онлайн, скачать торрент picoco.icu