Лицензия

MVO

1

1 сезон

Лицензия

Лицензия

13

MVO

1 сезон

Deluxe Edition

pack

Рекомендуем

30

Repack

ВАЖНО

ВАЖНО

Ghostwire

RePack

jed

RePack

fifa19

RePack

RDR2

RePack

NEED FOR SPEED™ PAYBACK

RePack

Кинопоиск HD

 Острые козырьки 6 сезон

6 сезон

FAR CRY 6

RePack

Лицензия

MVO

1

1 сезон

1 сезон

Лицензия

  

Двое и одна (Эдуард Гаврилов) [1988 г., Драма, мелодрама, DVDRip]

Двое и одна через торрент piratbit.org

Размер: 1.37 GB | Добавлен: 4 года 2 мес. назад | Торрент скачан:6 раз
Смотреть онлайн Двое и одна | Скачать   

12-07-2018 12:48 Двое и одна Скачать торрент  

Двое и одна
Год выпуска: 1988
Страна: СССР
Жанр: Драма, мелодрама
Продолжительность: 01:20:02
Субтитры: Отсутствуют

Режиссер: Эдуард Гаврилов



В ролях: Георгий Бурков, Юрий Астафьев, Маша Комаринская, Елена Майорова, Юрий Белов, Андрей Гусев, Юрий Саранцев, Надежда Федосова, Виктор Филиппов

Описание: Нелепая смерть женщины объединила трех близких ей людей: 6-летнюю дочь Олю, отца девочки и мужчину, с которым мать Оли познакомилась незадолго до гибели...

Качество: DVDRip
Формат: AVI
Видео кодек: DivX
Аудио кодек: AC3
Видео: DivX, 688x432 , 25.0fps, 2244 Kbps
Аудио#1: AC3 , 2 ch , 48 kHz , 192 kbps
Общее
Полное имя : D:Dvoe.i.odna_1988.DVDRip.avi
Формат : AVI
Формат/Информация : Audio Video Interleave
Размер файла : 1,37 Гбайт
Продолжительность : 1 ч. 20 м.
Общий поток : 2446 Кбит/сек
Программа кодирования : VirtualDubMod 1.5.10.2 (build 2540/release)
Библиотека кодирования : VirtualDubMod build 2540/release

Видео
Идентификатор : 0
Формат : MPEG-4 Visual
Параметр BVOP формата : 1
Параметр QPel формата : Нет
Параметр GMC формата : Без точки перехода
Параметр матрицы формата : Default (H.263)
Режим смешивания : Сжатый битовый поток
Идентификатор кодека : DX50
Идентификатор кодека/Подсказка : DivX 5
Продолжительность : 1 ч. 20 м.
Битрейт : 2244 Кбит/сек
Ширина : 688 пикселей
Высота : 432 пикселя
Соотношение сторон : 16:10
Частота кадров : 25,000 кадров/сек
Цветовое пространство : YUV
Субдискретизация насыщенности : 4:2:0
Битовая глубина : 8 бит
Тип развёртки : Прогрессивная
Метод сжатия : С потерями
Бит/(Пиксели*Кадры) : 0.302
Размер потока : 1,25 Гбайт (92%)
Библиотека кодирования : DivX 5.2.1 (WaffleDay) (UTC 2004-09-08)

Аудио
Идентификатор : 1
Формат : AC-3
Формат/Информация : Audio Coding 3
Расширение режима : CM (complete main)
Параметр Endianness формата : Big
Идентификатор кодека : 2000
Продолжительность : 1 ч. 20 м.
Вид битрейта : Постоянный
Битрейт : 192 Кбит/сек
Каналы : 2 канала
Расположение каналов : Front: L R
Частота : 48,0 КГц
Битовая глубина : 16 бит
Метод сжатия : С потерями
Размер потока : 110 Мбайт (8%)
Выравнивание : Разделение по промежуткам
Продолжительность промежутка : 40 мс. (1,00 видеокадр)
Время предзагрузки промежутка : 500 мс.




Скачать Двое и одна через торрент https://a.radikal.ru/a00/1807/dd/d5d94e7e9fdf.jpg Скачать, смотреть онлайн Двое и одна бесплантно в хорошем качестве Описание: Нелепая смерть женщины объединила трех близких ей людей: 6-летнюю дочь Олю, отца девочки и мужчину, с которым мать Оли ... 10 10 1
Торрент: Зарегистрирован [2018-07-12 12:48] · скачан: 6 раз
Статус: √ проверено
Размер: 1.37 GB
Как cкачать? Как скачать Двое и одна через торрент | UTorrent

28-11-2019 20:33  

Отключить вcю реклaмy на сайте

    Дорогой пользователь! Огромная просьба, поблагодарите релизера, оцените раздачу и оставьте свои комментарий, если Вы скачали Двое и одна через торрент бесплатно!!
    Комментировать посты могут только пользователи прошедшие не сложную регистрацию
    Показать сообщения:    


    Двое и одна через торрент
    Скачать бесплатно Двое и одна
    Двое и одна скачать торрент
    Двое и одна смотреть онлайн
    Cкачать фильм Двое и одна бесплатно
    Двое и одна скачать торрент в хорошем качестве
    Двое и одна смотреть онлайн бесплатно в хорошем качестве
    Вы не можете начинать темы
    Вы не можете отвечать на сообщения
    Вы не можете редактировать свои сообщения
    Вы не можете удалять свои сообщения
    Вы не можете голосовать в опросах
    Вы не можете прикреплять файлы к сообщениям
    Вы можете скачивать файлы