Всегда рабочее зеркало без VPN и Proxy просто перед .vidak.icu напиши любое слово или цифру, Пример http://ytq.vidak.icu

>

7.4

iTunes

7.4

2 сезон

6.6

iTunes

1

7.4

2 сезон

7.2

iTunes

6.0

MVO

13

6.1

iTunes

8.3

Пиратка

30

ULTIMATE

pack

9.9

Лицензия

ВАЖНО

ИГРА 18+

pack

7.3

RePack

MK11

7.7

RePack

jed

7.8

RePack

fifa19

8.5

RePack

RDR2

RePack

NEED FOR SPEED™ PAYBACK

1 сезон

9 сезон

Бесстыжие 9 сезон

Все сериалы

все сериалы на PB.wtf

RePack

FAR CRY 5

Anonymous, добрый вечер, мы катастрофически не успеваем собрать деньги на оплату серверов, помогите нам пожалуйста 5,10,15р., для нас важна любая помощь . В качестве благодарности мы отключим Вам всю рекламу на сайте (укажите свой ник в строку Ваше имя)!

×
  
Magnet ссылка

Мама навсегда (Евгений Никитин, Александр Королев, Кирилл Плетнёв) [2018, драма, WEB-DL 720p] piratbit.org

Мама навсегда через торрент piratbit.org

Размер: 2.92 GB | Добавлен: 3 года 6 мес. назад | Торрент скачан:27 раз
Смотреть онлайн Мама навсегда | Скачать    Ребята, помогите собрать деньги на оплату серверов!!!

13-07-2018 04:44 Мама навсегда Скачать торрент  

Мама навсегда
Год выпуска: 2018
Страна: Россия
Жанр: драма
Продолжительность: 01:20:24
Перевод: Не требуется
Субтитры: отсутствуют

Режиссер: Евгений Никитин, Александр Королев, Кирилл Плетнёв



В ролях:

Хельга Филиппова, Наталья Хохлова, Юрий Анпилогов, Оксана Голубева, Михаил Горевой, Светлана Ходченкова, Ольга Сирина, Ольга Лапшина,Егор Подгородинский

Описание:

В альманах вошли короткометражные фильмы, поднимающие важные для каждого из нас темы — семьи, любви, счастья.

Качество: WEB-DL 720p
Формат: MKV

Видео: h.264, 4 808 kb/s, 1280x720
Аудио#1: Русский (AC3, 2 ch, 384 Кбит/с)
скриншот  скриншот  скриншот  

Общее
Уникальный идентификатор : 193169066395371668618045884380937206422 (0x915302493CD402AD8C93B705BE683A96)
Полное имя : D:\MaMa.NaVSegda.2O18.O.WEB-DL.72Op_KOSHARA.mkv
Формат : Matroska
Версия формата : Version 2
Размер файла : 2,92 Гбайт
Продолжительность : 1 ч. 20 м.
Режим общего битрейта : Переменный
Общий поток : 5194 Кбит/сек
Дата кодирования : UTC 2018-06-19 12:06:30
Программа кодирования : mkvmerge v8.3.0 ('Over the Horizon') 64bit
Библиотека кодирования : libebml v1.3.1 + libmatroska v1.4.2

Видео
Идентификатор : 1
Формат : AVC
Формат/Информация : Advanced Video Codec
Профиль формата : High@L4.1
Параметр CABAC формата : Да
Параметр RefFrames формата : 4 кадра
Идентификатор кодека : V_MPEG4/ISO/AVC
Продолжительность : 1 ч. 20 м.
Вид битрейта : Переменный
Битрейт : 4808 Кбит/сек
Максимальный битрейт : 5500 Кбит/сек
Ширина : 1280 пикселей
Высота : 720 пикселей
Соотношение сторон : 16:9
Режим частоты кадров : Постоянный
Частота кадров : 23,976 (24000/1001) кадра/сек
Стандарт вещания : Component
Цветовое пространство : YUV
Субдискретизация насыщенности : 4:2:0
Битовая глубина : 8 бит
Тип развёртки : Прогрессивная
Бит/(Пиксели*Кадры) : 0.213
Размер потока : 2,64 Гбайт (91%)
Default : Да
Forced : Нет
Цветовой диапазон : Limited
Основные цвета : BT.709
Характеристики трансфера : BT.709
Коэффициенты матрицы : BT.709

Аудио
Идентификатор : 2
Формат : AC-3
Формат/Информация : Audio Coding 3
Расширение режима : CM (complete main)
Параметр Endianness формата : Big
Идентификатор кодека : A_AC3
Продолжительность : 1 ч. 20 м.
Вид битрейта : Постоянный
Битрейт : 384 Кбит/сек
Каналы : 2 канала
Расположение каналов : Front: L R
Частота : 48,0 КГц
Частота кадров : 31,250 кадров/сек (1536 spf)
Метод сжатия : С потерями
Размер потока : 221 Мбайт (7%)
Default : Да
Forced : Нет

piratbit.org



Скачать Мама навсегда через торрент https://pic1.kartinco.top/images/11/8plg6.jpg Скачать, смотреть онлайн Мама навсегда бесплантно в хорошем качестве Описание: В альманах вошли короткометражные фильмы, поднимающие важные для каждого из нас темы — семьи, любви, ... 10 10 2
Торрент: Зарегистрирован [2018-07-13 04:44] · скачан: 27 раз
Статус: T временная
Размер: 2.92 GB
Как cкачать? Как скачать Мама навсегда через торрент | UTorrent

% Раздел Тема Автор DL S | L
T Наши фильмы (мультфильмы) cо спонсором показа (Новинки AVI/MKV) [ 3.14 GB ] Мама навсегда [2018 WEB-DL 1080p] bober100 Скачать
1 | 0
T Наши фильмы (мультфильмы) cо спонсором показа (Новинки AVI/MKV) [ 1.37 GB ] Мама навсегда [2018 WEB-DLRip] bober100 Скачать
1 | 0

28-11-2019 20:33  

Отключить всю рекламу на сайте

    Дорогой пользователь! Огромная просьба, поблагодарите релизера, оцените раздачу и оставьте свои комментарий, если Вы скачали Мама навсегда через торрент бесплатно!
    Комментировать посты могут только пользователи прошедшие не сложную регистрацию
    Показать сообщения:    

    Мама навсегда через торрент
    Скачать бесплатно Мама навсегда
    Мама навсегда скачать торрент
    Мама навсегда смотреть онлайн
    Cкачать фильм Мама навсегда бесплатно
    Мама навсегда скачать торрент в хорошем качестве
    Мама навсегда смотреть онлайн бесплатно в хорошем качестве


    Вы не можете начинать темы
    Вы не можете отвечать на сообщения
    Вы не можете редактировать свои сообщения
    Вы не можете удалять свои сообщения
    Вы не можете голосовать в опросах
    Вы не можете прикреплять файлы к сообщениям
    Вы можете скачивать файлы