Всегда рабочее зеркало без VPN и Proxy просто перед .vidak.icu напиши любое слово или цифру, Пример http://h5t.vidak.icu

>

7.4

iTunes

7.4

2 сезон

6.6

iTunes

1

7.4

2 сезон

7.2

iTunes

6.0

MVO

13

6.1

iTunes

8.3

Пиратка

30

ULTIMATE

pack

9.9

Лицензия

ВАЖНО

ИГРА 18+

pack

7.3

RePack

MK11

7.7

RePack

jed

7.8

RePack

fifa19

8.5

RePack

RDR2

RePack

NEED FOR SPEED™ PAYBACK

1 сезон

9 сезон

Бесстыжие 9 сезон

Все сериалы

все сериалы на PB.wtf

RePack

FAR CRY 5

Anonymous, добрый вечер, мы катастрофически не успеваем собрать деньги на оплату серверов, помогите нам пожалуйста 5,10,15р., для нас важна любая помощь . В качестве благодарности мы отключим Вам всю рекламу на сайте (укажите свой ник в строку Ваше имя)!

×
  
Magnet ссылка

Мой лучший друг (Элина Суни) [2017, драма, история, WEB-DL 1080p] piratbit.org

Мой лучший друг через торрент piratbit.org

Размер: 5.51 GB | Добавлен: 3 года 6 мес. назад | Торрент скачан:51 раз
Смотреть онлайн Мой лучший друг | Скачать    Ребята, помогите собрать деньги на оплату серверов!!!

14-07-2018 05:54 Мой лучший друг Скачать торрент  

Мой лучший другГод выпуска: 2017
Страна: Россия
Жанр: драма, история
Продолжительность: :02:26:23
Перевод: Не требуется
Субтитры: отсутствуют

Режиссер: Элина Суни



В ролях:

Маргарита Кутовая, Юрий Поляк, Владимир Ильин, Антон Капанин, Людмила Дмитриева, Кира Тё, Денис Варенов, Дмитрий Файнштейн, Анастасия Пронина

Описание:

Лучший студент курса, талант и красавец Андрей Артамонов совершенно неожиданно проваливает защиту курсовой. В шестидесятые годы научно-технические разработки студентов часто внедрялись в производство, и идея Артамонова вполне могла бы стать прогрессивным открытием в газовой промышленности. Однако гордость и самолюбие не позволяют ему признать очевидные ошибки: он выбрасывает чертежи и забывает об этой работе. Но через четыре года после окончания института судьба заставит его не только вспомнить о выброшенных в мусор чертежах, но и сделать сложнейший выбор - либо блестящая карьера в Москве, либо три пожелтевших листа бумаги.

Качество: WEB-DL 1080p
Формат: MKV

Видео: h.264, 5 005 kb/s, 1920x800
Аудио#1: Русский, (AC3, 2 ch, 384 Кбит/с)
скриншот  скриншот  скриншот  

Общее
Уникальный идентификатор : 200526249300607631028408103777351880410 (0x96DBF368B39DC1F28E20194C12DDCEDA)
Полное имя : D:\Moy.LuTSHiy.DruG.2o17.O.WEB-DL.1O8OP_KOSHARA.mkv
Формат : Matroska
Версия формата : Version 2
Размер файла : 5,51 Гбайт
Продолжительность : 2 ч. 26 м.
Режим общего битрейта : Переменный
Общий поток : 5391 Кбит/сек
Дата кодирования : UTC 2018-06-19 12:23:27
Программа кодирования : mkvmerge v8.3.0 ('Over the Horizon') 64bit
Библиотека кодирования : libebml v1.3.1 + libmatroska v1.4.2

Видео
Идентификатор : 1
Формат : AVC
Формат/Информация : Advanced Video Codec
Профиль формата : High@L4.1
Параметр CABAC формата : Да
Параметр RefFrames формата : 4 кадра
Идентификатор кодека : V_MPEG4/ISO/AVC
Продолжительность : 2 ч. 26 м.
Вид битрейта : Переменный
Битрейт : 5005 Кбит/сек
Максимальный битрейт : 5700 Кбит/сек
Ширина : 1920 пикселей
Высота : 800 пикселей
Соотношение сторон : 2,40:1
Режим частоты кадров : Постоянный
Частота кадров : 23,976 (24000/1001) кадра/сек
Стандарт вещания : Component
Цветовое пространство : YUV
Субдискретизация насыщенности : 4:2:0
Битовая глубина : 8 бит
Тип развёртки : Прогрессивная
Бит/(Пиксели*Кадры) : 0.133
Размер потока : 5,01 Гбайт (91%)
Default : Да
Forced : Нет
Цветовой диапазон : Limited
Основные цвета : BT.709
Характеристики трансфера : BT.709
Коэффициенты матрицы : BT.709

Аудио
Идентификатор : 2
Формат : AC-3
Формат/Информация : Audio Coding 3
Расширение режима : CM (complete main)
Параметр Endianness формата : Big
Идентификатор кодека : A_AC3
Продолжительность : 2 ч. 26 м.
Вид битрейта : Постоянный
Битрейт : 384 Кбит/сек
Каналы : 2 канала
Расположение каналов : Front: L R
Частота : 48,0 КГц
Частота кадров : 31,250 кадров/сек (1536 spf)
Метод сжатия : С потерями
Размер потока : 402 Мбайт (7%)
Default : Да
Forced : Нет

piratbit.org



Скачать Мой лучший друг через торрент https://img11.lostpic.net/2018/07/14/8ed8b3f0801fbb450995cf5a0659c1d6.jpg Скачать, смотреть онлайн Мой лучший друг бесплантно в хорошем качестве Описание: Лучший студент курса, талант и красавец Андрей Артамонов совершенно неожиданно проваливает защиту курсовой. В шестидесятые годы ... 10 10 5
Торрент: Зарегистрирован [2018-07-14 05:54] · скачан: 51 раз
Статус: T временная
Размер: 5.51 GB
Как cкачать? Как скачать Мой лучший друг через торрент | UTorrent

% Раздел Тема Автор DL S | L
Гонзо [ 1.67 GB ] Мама Моего Лучшего Друга Глотает / My Best Friends Mom Swallows [2021 Big Dicks Big Tits Blowjobs Cougars Cumshots Erotic Vignette Facials Fingering Gonzo Lingerie MILF Point Of View Shaved Swallowing Tit Fucking WEB-DL] bashai5 Скачать
10 | 0
Порно фильмы HD [ 1.64 GB ] Соблазнение моей правильной лучшей белой подруги / Seducing My Straight White Best Friend [2021 All Girl Lesbian Interracial SiteRip 720p] Скорпион1976 Скачать
3 | 0
Порно фильмы без сюжета [ 1.29 GB ] Запретные Романы 12: Папа Моего Лучшего Друга / Forbidden Affairs Vol. 12: My Best Friends Dad [2020 18+ Teens All Sex Couples Family Roleplay WEB-DL] bashai5 Скачать
2 | 0
Порно фильмы HD [ 2.73 GB ] Peguei Meu Marido Com A Minha Melhor Amiga / Получил мой муж с моим лучшим другом [2019 Anal BlowJob Big Ass Brazilian Cowgirl Cumshot Doggystyle Facial Gonzo Hardcore Latina Lesbian Missionary Oral Portuguese Reverse Cowgirl WEB- Venom Скачать
1 | 0
T Наши фильмы (мультфильмы) cо спонсором показа (Новинки AVI/MKV) [ 1.46 GB ] Мой лучший друг [2017 история WEB-DLRip] bober100 Скачать
1 | 0
T Наши фильмы (мультфильмы) cо спонсором показа (Новинки AVI/MKV) [ 4.96 GB ] Мой лучший друг [2017 история WEB-DL 720p] bober100 Скачать
1 | 0
T Наши фильмы (мультфильмы) cо спонсором показа (Новинки AVI/MKV) [ 2.18 GB ] Мой лучший друг [2017 история WEB-DLRip] bober100 Скачать
1 | 0

28-11-2019 20:33  

Отключить всю рекламу на сайте

    Дорогой пользователь! Огромная просьба, поблагодарите релизера, оцените раздачу и оставьте свои комментарий, если Вы скачали Мой лучший друг через торрент бесплатно!
    Комментировать посты могут только пользователи прошедшие не сложную регистрацию
    Показать сообщения:    

    Мой лучший друг через торрент
    Скачать бесплатно Мой лучший друг
    Мой лучший друг скачать торрент
    Мой лучший друг смотреть онлайн
    Cкачать фильм Мой лучший друг бесплатно
    Мой лучший друг скачать торрент в хорошем качестве
    Мой лучший друг смотреть онлайн бесплатно в хорошем качестве


    Вы не можете начинать темы
    Вы не можете отвечать на сообщения
    Вы не можете редактировать свои сообщения
    Вы не можете удалять свои сообщения
    Вы не можете голосовать в опросах
    Вы не можете прикреплять файлы к сообщениям
    Вы можете скачивать файлы