Доктор Стрэндж

Лицензия

Добыча

Дубляж

Дом дракона

1 сезон

Тор

Дубляж

В эфире

Дубляж

Там, где раки поют

MVO

Властелин колец

1 сезон

Ultimate

pack

Рекомендуем

30

Пиратка

ВАЖНО

ВАЖНО

Ghostwire

Пиратка

jed

RePack

nioh2

RePack

RDR2

RePack

NEED FOR SPEED™ PAYBACK

RePack

скачать торрент

Кинопоиск HD

Острые козырьки 6 сезон

6 сезон

FAR CRY 6

RePack

скачать торрент

Лицензия

скачать торрент

MVO

1

1 сезон

скачать торрент

1 сезон

скачать торрент

Лицензия

  

Лицом к лицу / Faccia a faccia [1967, Приключения, вестерн, BDRip 1080p от _denis_100 | NNNB] VO

Лицом к лицу через торрент piratbit.org

Размер: 9.9 GB | Добавлен: 4 года 4 мес. назад | Торрент скачан:26 раз
Смотреть онлайн | Скачать   

15-07-2018 12:58 Лицом к лицу Скачать торрент  

Лицом к лицу / Faccia a faccia




Год выпуска: 1967
Страна: Италия, Испания
Жанр: Приключения, вестерн
Продолжительность: 01:33:31
Перевод: Любительский одноголосый
Субтитры: нет
Режиссер: Сержио Соллима
В ролях: Томас Милиан, Джан Мария Волонте, Вильям Бергер, Иоланда Модио, Хосе Торрес, Джанни Риццо, Кароль Андре, Анхель дель Посо, Альдо Самбрелл, Нелло Паццафини, Федерико Бойдо, Линда Верас, Антонио Касас, Франк Бранья, Джованни Иван Скратулья, Лидия Альфонси, Лоренцо Робледо
Описание:
Профессор Брэд Флетчер случайным образом оказался в компании отъявленного бандита Соломона «Боригарда» Беннета. Поначалу преступная натура невольного компаньона отталкивает Флетчера, воспитанного в уважении к закону, но истинная сущность профессора со временем раскрывается…

Качество: BDRip 1080p
Контейнер (Расширение): MKV
Видео: 1920x818, 14596 Кбит/сек, 23.976 кадр/сек, 0,379 Бит/[Пиксели*Кадры]
Аудио №1: русский / AC3 / 2.0 / 48 kHz / 192 kbps / |Любительский одноголосый, Satkur|
Аудио №2: итальянский / AC3 / 2.0 / 48 kHz / 192 kbps /
Аудио №3: английский / AC3 / 2.0 / 48 kHz / 192 kbps /
Навигация по главам(Чаптеры): естьАвтор рипа: Группа:
Format : Matroska
Format version : Version 2
File size : 9.90 GiB
Duration : 1 h 33 min
Overall bit rate : 15.2 Mb/s
Movie name : Faccia a faccia.(1967).BDRip.1080p.[denis100]
Encoded date : UTC 2018-07-15 12:13:48
Writing application : mkvmerge v5.8.0 ('No Sleep / Pillow') built on Sep 2 2012 15:37:04
Writing library : libebml v1.2.3 + libmatroska v1.3.0

Video
ID : 1
Format : AVC
Format/Info : Advanced Video Codec
Format profile : High@L4.1
Format settings : CABAC / 5 Ref Frames
Format settings, CABAC : Yes
Format settings, ReFrames : 5 frames
Codec ID : V_MPEG4/ISO/AVC
Duration : 1 h 33 min
Bit rate : 14.3 Mb/s
Width : 1 920 pixels
Height : 818 pixels
Display aspect ratio : 2.35:1
Frame rate mode : Constant
Frame rate : 23.976 (24000/1001) FPS
Color space : YUV
Chroma subsampling : 4:2:0
Bit depth : 8 bits
Scan type : Progressive
Bits/(Pixel*Frame) : 0.379
Stream size : 9.33 GiB (94%)
Title : Faccia a faccia.(1967).BDRip.1080p.[denis100]
Writing library : x264 core 155 r2901 7d0ff22
Encoding settings : cabac=1 / ref=5 / deblock=1:-3:-3 / analyse=0x3:0x113 / me=umh / subme=11 / psy=1 / psy_rd=1.00:0.10 / mixed_ref=1 / me_range=32 / chroma_me=1 / trellis=2 / 8x8dct=1 / cqm=0 / deadzone=21,11 / fast_pskip=0 / chroma_qp_offset=-3 / threads=6 / lookahead_threads=1 / sliced_threads=0 / nr=0 / decimate=1 / interlaced=0 / bluray_compat=0 / constrained_intra=0 / bframes=16 / b_pyramid=2 / b_adapt=2 / b_bias=0 / direct=3 / weightb=0 / open_gop=0 / weightp=2 / keyint=240 / keyint_min=23 / scenecut=40 / intra_refresh=0 / rc=crf / mbtree=0 / crf=18.0 / qcomp=0.60 / qpmin=0 / qpmax=69 / qpstep=4 / ip_ratio=1.40 / pb_ratio=1.30 / aq=1:0.80
Language : English
Default : Yes
Forced : No

Audio #1
ID : 2
Format : AC-3
Format/Info : Audio Coding 3
Codec ID : A_AC3
Duration : 1 h 33 min
Bit rate mode : Constant
Bit rate : 192 kb/s
Channel(s) : 2 channels
Channel positions : Front: L R
Sampling rate : 48.0 kHz
Frame rate : 31.250 FPS (1536 SPF)
Bit depth : 16 bits
Compression mode : Lossy
Stream size : 128 MiB (1%)
Title : VO, Satkur
Language : Russian
Service kind : Complete Main
Default : Yes
Forced : No

Audio #2
ID : 3
Format : AC-3
Format/Info : Audio Coding 3
Codec ID : A_AC3
Duration : 1 h 33 min
Bit rate mode : Constant
Bit rate : 192 kb/s
Channel(s) : 2 channels
Channel positions : Front: L R
Sampling rate : 48.0 kHz
Frame rate : 31.250 FPS (1536 SPF)
Bit depth : 16 bits
Compression mode : Lossy
Stream size : 128 MiB (1%)
Language : Italian
Service kind : Complete Main
Default : No
Forced : No

Audio #3
ID : 4
Format : AC-3
Format/Info : Audio Coding 3
Codec ID : A_AC3
Duration : 1 h 33 min
Bit rate mode : Constant
Bit rate : 192 kb/s
Channel(s) : 2 channels
Channel positions : Front: L R
Sampling rate : 48.0 kHz
Frame rate : 31.250 FPS (1536 SPF)
Bit depth : 16 bits
Compression mode : Lossy
Stream size : 128 MiB (1%)
Language : English
Service kind : Complete Main
Default : No
Forced : No

Menu
00:00:00.000 : en:00:00:00.000
00:07:11.221 : en:00:07:11.221
00:21:25.075 : en:00:21:25.075
00:35:15.112 : en:00:35:15.112
00:45:07.246 : en:00:45:07.246
00:56:19.501 : en:00:56:19.501
01:07:42.766 : en:01:07:42.766
01:17:31.395 : en:01:17:31.395
скриншот   скриншот   скриншот   скриншот  



Скачать Лицом к лицу через торрент http://i3-imageban-ru.translate.goog/out/2018/07/15/64cf0256fd1a0ecf1aff8ca5687b2144.png Скачать, смотреть онлайн Лицом к лицу бесплантно в хорошем качестве Описание:Профессор Брэд Флетчер случайным образом оказался в компании отъявленного бандита Соломона «Боригарда» Беннета. Поначалу ... 5 10 1
Info! Золотая раздача, скачанное не засчитывается.
Торрент: Зарегистрирован [2018-07-15 12:59] · скачан: 26 раз
Статус: √ проверено
Размер: 9.9 GB
Как cкачать? Как скачать Лицом к лицу через торрент | UTorrent

% Раздел Тема Автор DL S | L
Фильмы [HD 720p, 1080p] (Звук Cam, VO, DVO) [ 8.2 GB ] Лицом к лицу / Faccia a faccia | | 1080p msltel Скачать
1 | 0
Фильмы [HD 720p, 1080p] (Звук Cam, VO, DVO) [ 3.41 GB ] Лицом к лицу / Faccia a faccia | | 720p msltel Скачать
1 | 0

28-11-2019 20:33  


Отключить вcю реклaмy на сайте, в т.ч. и в плеере онлайн просмотра!

16-07-2018 06:37 Лицом к лицу Скачать торрент  

    Дорогой пользователь! Огромная просьба, поблагодарите релизера, оцените раздачу и оставьте свои комментарий, если Вы скачали Лицом к лицу через торрент бесплатно!!
    Комментировать посты могут только пользователи прошедшие не сложную регистрацию
    Показать сообщения:    


    Лицом к лицу через торрент
    Скачать бесплатно Лицом к лицу
    Лицом к лицу скачать торрент
    Лицом к лицу смотреть онлайн
    Cкачать фильм Лицом к лицу бесплатно
    Лицом к лицу скачать торрент в хорошем качестве
    Лицом к лицу смотреть онлайн бесплатно в хорошем качестве
    Вы не можете начинать темы
    Вы не можете отвечать на сообщения
    Вы не можете редактировать свои сообщения
    Вы не можете удалять свои сообщения
    Вы не можете голосовать в опросах
    Вы не можете прикреплять файлы к сообщениям
    Вы можете скачивать файлы
    Лицом к лицу / Faccia a faccia [1967, Приключения, вестерн, BDRip 1080p от _denis_100 | NNNB] VO смотреть онлайн, скачать торрент picoco.icu