Лицензия

MVO

1

1 сезон

Лицензия

Лицензия

13

MVO

1 сезон

Deluxe Edition

pack

Рекомендуем

30

Repack

ВАЖНО

ВАЖНО

Ghostwire

RePack

jed

RePack

fifa19

RePack

RDR2

RePack

NEED FOR SPEED™ PAYBACK

RePack

Кинопоиск HD

 Острые козырьки 6 сезон

6 сезон

FAR CRY 6

RePack

Лицензия

MVO

1

1 сезон

1 сезон

Лицензия

  

Возвращение (Михаил Терещенко) [1960, СССР, драма, SATRip от AVP Studio]

Возвращение через торрент piratbit.org

Размер: 1.09 GB | Добавлен: 4 года 2 мес. назад | Торрент скачан:6 раз
Смотреть онлайн Возвращение | Скачать   

17-07-2018 07:23 Возвращение Скачать торрент  

Возвращение
Страна: СССР
Производство: Одесская киностудия

Жанр: драма
Год выпуска: 1960
Продолжительность: 01:18:05

Перевод: Не требуется
Cубтитры: нет
Оригинальная аудиодорожка: русский

Режиссер: Михаил Терещенко

В ролях:
Генрих Осташевский, Наталья Богомолова, Василий Векшин, Людмила Татьянчук, Александр Гай, Всеволод Якут, Яков Павлов, Пётр Вишняков, Семён Кошачевский, Василий Бидяк...
Об актёрах подробней

Описание:
Стефан Суббота, эмигрировав в Америку, пятнадцать лет скитался в поисках заработков. Накопив денег, герой обзавелся небольшой фермой и с приходом весны приехал в родное село на Украину, где все эти годы ждала его Христина. Многое изменилось в жизни Закарпатья - и как ни любила его Христина, а ехать с ним отказалась. Стефан, решив провести в родных краях лето, устроился на временную работу, перестал сокрушаться по брошенной ферме - и, в конце концов, остался здесь навсегда.

Исходник: DVB
Качество видео: SATRip
Формат видео: AVI

Видео: 688x512 (4:3), 25,000 кадров/сек, XviD ~ 1797 kbps avg, 0.204 bit/pixel
Аудио: 48 kHz, Dolby Digital AC3 2.0, 192 kbps

Раздача от:
Общее
Полное имя : Vozvrashchenie.1960.SATRip_[New-team]_by_AVP_Studio.avi
Формат : AVI
Формат/Информация : Audio Video Interleave
Размер файла : 1,09 Гбайт
Продолжительность : 1 ч. 18 м.
Общий поток : 1998 Кбит/сек
Программа кодирования : VirtualDubMod 1.5.10.3 | www.virtualdub-fr.org || (build 2550/release)
Библиотека кодирования : VirtualDubMod build 2550/release

Видео
Идентификатор : 0
Формат : MPEG-4 Visual
Профиль формата : Advanced Simple@L5
Настройки формата : BVOP1 / Custom Matrix
Параметр BVOP формата : 1
Параметр QPel формата : Нет
Параметр GMC формата : Без точки перехода
Параметр матрицы формата : Выборочная
Идентификатор кодека : XVID
Идентификатор кодека/Подсказка : XviD
Продолжительность : 1 ч. 18 м.
Битрейт : 1797 Кбит/сек
Ширина : 688 пикселей
Высота : 512 пикселей
Соотношение сторон : 4:3
Частота кадров : 25,000 кадров/сек
Цветовое пространство : YUV
Субдискретизация насыщенности : 4:2:0
Битовая глубина : 8 бит
Тип развёртки : Прогрессивная
Метод сжатия : С потерями
Бит/(Пиксели*Кадры) : 0.204
Размер потока : 1003 Мбайт (90%)
Библиотека кодирования : XviD 73

Аудио
Идентификатор : 1
Формат : AC-3
Формат/Информация : Audio Coding 3
Идентификатор кодека : 2000
Продолжительность : 1 ч. 18 м.
Вид битрейта : Постоянный
Битрейт : 192 Кбит/сек
Каналы : 2 канала
Расположение каналов : Front: L R
Частота : 48,0 КГц
Частота кадров : 31,250 кадров/сек (1536 SPF)
Битовая глубина : 16 бит
Метод сжатия : С потерями
Размер потока : 107 Мбайт (10%)
Выравнивание : Разделение по промежуткам
Продолжительность промежутка : 40 мс. (1,00 видеокадр)
Время предзагрузки промежутка : 500 мс



Скачать Возвращение через торрент http://picplus.ru/img/1807/17/c0525249.png Скачать, смотреть онлайн Возвращение бесплантно в хорошем качестве Описание:Стефан Суббота, эмигрировав в Америку, пятнадцать лет скитался в поисках заработков. Накопив денег, герой обзавелся небольшой ... 5 10 1
Info! Золотая раздача, скачанное не засчитывается.
Торрент: Зарегистрирован [2018-07-17 07:23] · скачан: 6 раз
Статус: √ проверено
Размер: 1.09 GB
Как cкачать? Как скачать Возвращение через торрент | UTorrent

% Раздел Тема Автор DL S | L
Кино СССР [ 1.09 GB ] Возвращение | | SATRip-AVC от AVP Studio AVP Studio Скачать
1 | 0

28-11-2019 20:33  

Отключить вcю реклaмy на сайте

    Дорогой пользователь! Огромная просьба, поблагодарите релизера, оцените раздачу и оставьте свои комментарий, если Вы скачали Возвращение через торрент бесплатно!!
    Комментировать посты могут только пользователи прошедшие не сложную регистрацию
    Показать сообщения:    


    Возвращение через торрент
    Скачать бесплатно Возвращение
    Возвращение скачать торрент
    Возвращение смотреть онлайн
    Cкачать фильм Возвращение бесплатно
    Возвращение скачать торрент в хорошем качестве
    Возвращение смотреть онлайн бесплатно в хорошем качестве
    Вы не можете начинать темы
    Вы не можете отвечать на сообщения
    Вы не можете редактировать свои сообщения
    Вы не можете удалять свои сообщения
    Вы не можете голосовать в опросах
    Вы не можете прикреплять файлы к сообщениям
    Вы можете скачивать файлы