Достать ножи: Стеклянная луковица

MVO

Добыча

Дубляж

Уэнсдэй

1 сезон

Тор

Дубляж

13 клиническая

1 сезон

Жестокая ночь

MVO

Одни из нас

1 сезон

Deluxe

pack

Рекомендуем

30

Пиратка

ВАЖНО

ВАЖНО

Ghostwire

Пиратка

jed

RePack

nioh2

RePack

RDR2

RePack

NEED FOR SPEED™ PAYBACK

RePack

скачать торрент

Кинопоиск HD

Острые козырьки 6 сезон

6 сезон

FAR CRY 6

RePack

скачать торрент

Лицензия

скачать торрент

MVO

1

1 сезон

скачать торрент

1 сезон

скачать торрент

Лицензия

  

Гордая Мэри / Proud Mary (Бабак Наджафи) [2018, боевик, триллер, UHD WEBRip 2160p] [HDR] 2xMVO [HDRezka, iTunes]

Гордая Мэри через торрент piratbit.org

Размер: 12.43 GB | Добавлен: 4 года 6 мес. назад | Торрент скачан:26 раз
Смотреть онлайн | Скачать | Поддержите нас   

17-07-2018 08:51 Гордая Мэри Скачать торрент  

Гордая Мэри / Proud Mary
Год выпуска: 2018
Страна: США
Жанр: боевик, триллер
Продолжительность: 01:29:02
Перевод:

#1. Профессиональный (многоголосый, закадровый) | iTunes
#2. Профессиональный (многоголосый) | HDRezka

Субтитры: отсутствуют

Режиссер: Бабак Наджафи

rating Семпл

В ролях:

Тараджи П. Хенсон, Билли Браун, Нил МакДонаф, Маргарет Эйвери, Ксандер Беркли, Раде Шербеджия, Эрик Ларей Харви, Дэнни Гловер

Описание:

Женщина-киллер Мэри, работающая на бостонскую мафию, убивает наркоторговца, оставляя сиротой его малолетнего сына. Неожиданные материнские чувства побуждают Мэри позаботиться о судьбе мальчика. Она пытается начать новую жизнь – для него и для себя.

Качество: UHD WEBRip 2160p
Формат: MKV

Видео: HEVC HDR, 17.1 Mбит/с, 3840x1600, 23.976 кадр/с
Аудио#1: Русский (АС3, 6 ch, 384 Кбит/с, 48.0 KHz) / Профессиональный многоголосый (iTunes)
Аудио#2: Русский (АС3, 2 ch, 192 Кбит/с, 48.0 KHz) / Профессиональный многоголосый (HDRezka)
Аудио#3: Английский (DTS-HD MA, 6 ch, 2250 Кбит/с, 48.0 KHz)
скриншот  скриншот  скриншот  скриншот  скриншот  

General
Unique ID : 334667157589305895508232812220133781493 (0xFBC68CCE2366B2006F7D06966541AFF5)
Complete name : C:UsersPublicVideosSample VideosFilmyProud.Mary.2018.2160p.HDR.WEBRip.MediaClub.mkv
Format : Matroska
Format version : Version 4 / Version 2
File size : 12.4 GiB
Duration : 1 h 29 min
Overall bit rate : 20.0 Mb/s
Encoded date : UTC 2018-07-10 23:02:30
Writing application : mkvmerge v19.0.0 ('Brave Captain') 64-bit
Writing library : libebml v1.3.5 + libmatroska v1.4.8
Cover : Yes
Attachments : cover.jpg

Video
ID : 1
Format : HEVC
Format/Info : High Efficiency Video Coding
Commercial name : HDR10
Format profile : Main 10@L5@Main
Codec ID : V_MPEGH/ISO/HEVC
Duration : 1 h 29 min
Bit rate : 17.1 Mb/s
Width : 3 840 pixels
Height : 1 600 pixels
Display aspect ratio : 2.40:1
Frame rate mode : Constant
Frame rate : 23.976 (24000/1001) FPS
Color space : YUV
Chroma subsampling : 4:2:0
Bit depth : 10 bits
Bits/(Pixel*Frame) : 0.116
Stream size : 10.7 GiB (86%)
Title : WEBRip.2160p.HDR by Silverok
Writing library : x265 2.8+19-bcdc610cf5f0:[Windows][MSVC 1914][64 bit] 10bit
Encoding settings : cpuid=1111039 / frame-threads=3 / numa-pools=8 / wpp / no-pmode / no-pme / no-psnr / no-ssim / log-level=2 / input-csp=1 / input-res=3840x1600 / interlace=0 / total-frames=128266 / level-idc=0 / high-tier=1 / uhd-bd=0 / ref=3 / no-allow-non-conformance / repeat-headers / annexb / no-aud / no-hrd / info / hash=0 / no-temporal-layers / open-gop / min-keyint=23 / keyint=250 / gop-lookahead=0 / bframes=4 / b-adapt=2 / b-pyramid / bframe-bias=0 / rc-lookahead=20 / lookahead-slices=8 / scenecut=40 / radl=0 / no-intra-refresh / ctu=64 / min-cu-size=8 / no-rect / no-amp / max-tu-size=32 / tu-inter-depth=1 / tu-intra-depth=1 / limit-tu=0 / rdoq-level=0 / dynamic-rd=0.00 / no-ssim-rd / signhide / no-tskip / nr-intra=0 / nr-inter=0 / no-constrained-intra / strong-intra-smoothing / max-merge=2 / limit-refs=3 / no-limit-modes / me=1 / subme=2 / merange=57 / temporal-mvp / weightp / no-weightb / no-analyze-src-pics / deblock=0:0 / sao / no-sao-non-deblock / rd=3 / no-early-skip / rskip / no-fast-intra / no-tskip-fast / no-cu-lossless / no-b-intra / no-splitrd-skip / rdpenalty=0 / psy-rd=2.00 / psy-rdoq=0.00 / no-rd-refine / no-lossless / cbqpoffs=0 / crqpoffs=0 / rc=crf / crf=7.0 / qcomp=0.60 / qpstep=4 / stats-write=0 / stats-read=0 / ipratio=1.40 / pbratio=1.30 / aq-mode=1 / aq-strength=1.00 / cutree / zone-count=0 / no-strict-cbr / qg-size=32 / no-rc-grain / qpmax=69 / qpmin=0 / no-const-vbv / sar=0 / overscan=0 / videoformat=5 / range=0 / colorprim=9 / transfer=16 / colormatrix=9 / chromaloc=0 / display-window=0 / master-display=G(13250,34500)B(7500,3000)R(34000,16000)WP(15635,16450)L(39990000,50) / max-cll=4000,1000 / min-luma=0 / max-luma=1023 / log2-max-poc-lsb=8 / vui-timing-info / vui-hrd-info / slices=1 / no-opt-qp-pps / no-opt-ref-list-length-pps / no-multi-pass-opt-rps / scenecut-bias=0.05 / no-opt-cu-delta-qp / no-aq-motion / hdr / hdr-opt / no-dhdr10-opt / no-idr-recovery-sei / analysis-reuse-level=5 / scale-factor=0 / refine-intra=0 / refine-inter=0 / refine-mv=0 / no-limit-sao / ctu-info=0 / no-lowpass-dct / refine-mv-type=0 / copy-pic=1 / max-ausize-factor=1.0 / no-dynamic-refine / no-single-sei
Default : Yes
Forced : No
Color range : Limited
Color primaries : BT.2020
Transfer characteristics : PQ
Matrix coefficients : BT.2020 non-constant
Mastering display color primaries : Display P3
Mastering display luminance : min: 0.0050 cd/m2, max: 3999 cd/m2
Maximum Content Light Level : 4000 cd/m2
Maximum Frame-Average Light Level : 1000 cd/m2

Audio #1
ID : 2
Format : AC-3
Format/Info : Audio Coding 3
Codec ID : A_AC3
Duration : 1 h 29 min
Bit rate mode : Constant
Bit rate : 384 kb/s
Channel(s) : 6 channels
Channel positions : Front: L C R, Side: L R, LFE
Sampling rate : 48.0 kHz
Frame rate : 31.250 FPS (1536 SPF)
Bit depth : 16 bits
Compression mode : Lossy
Stream size : 245 MiB (2%)
Title : Профессиональный многоголосый (iTunes)
Language : Russian
Service kind : Complete Main
Default : Yes
Forced : No

Audio #2
ID : 3
Format : AC-3
Format/Info : Audio Coding 3
Codec ID : A_AC3
Duration : 1 h 29 min
Bit rate mode : Constant
Bit rate : 192 kb/s
Channel(s) : 2 channels
Channel positions : Front: L R
Sampling rate : 48.0 kHz
Frame rate : 31.250 FPS (1536 SPF)
Bit depth : 16 bits
Compression mode : Lossy
Stream size : 122 MiB (1%)
Title : Профессиональный многоголосый (HDRezka)
Language : Russian
Service kind : Complete Main
Default : No
Forced : No

Audio #3
ID : 4
Format : DTS
Format/Info : Digital Theater Systems
Format profile : MA / Core
Codec ID : A_DTS
Duration : 1 h 29 min
Bit rate mode : Variable / Constant
Bit rate : 2 250 kb/s / 1 509 kb/s
Channel(s) : 6 channels
Channel positions : Front: L C R, Side: L R, LFE
Sampling rate : 48.0 kHz
Frame rate : 93.750 FPS (512 SPF)
Bit depth : 16 bits
Compression mode : Lossless / Lossy
Delay relative to video : 23 ms
Stream size : 1.40 GiB (11%)
Language : English
Default : No
Forced : No

Text #1
ID : 5
Format : UTF-8
Codec ID : S_TEXT/UTF8
Codec ID/Info : UTF-8 Plain Text
Duration : 1 h 21 min
Bit rate : 44 b/s
Count of elements : 899
Stream size : 26.6 KiB (0%)
Title : Full
Language : English
Default : Yes
Forced : No

Text #2
ID : 6
Format : UTF-8
Codec ID : S_TEXT/UTF8
Codec ID/Info : UTF-8 Plain Text
Duration : 1 h 27 min
Bit rate : 52 b/s
Count of elements : 1151
Stream size : 33.4 KiB (0%)
Title : SDH
Language : English
Default : No
Forced : No




Скачать Гордая Мэри через торрент https://pic1.kartinco.top/images/11/cqhwn.jpg Скачать, смотреть онлайн Гордая Мэри бесплантно в хорошем качестве Описание: Женщина-киллер Мэри, работающая на бостонскую мафию, убивает наркоторговца, оставляя сиротой его малолетнего сына. Неожиданные ... 10 10 4
Торрент: Зарегистрирован [2018-07-17 08:51] · скачан: 26 раз
Статус: √ проверено
Размер: 12.43 GB
Как cкачать? Как скачать Гордая Мэри через торрент | UTorrent

% Раздел Тема Автор DL S | L
Фильмы (Blu-ray, BD-Remux, HDDVD) [ 18.45 GB ] Гордая Мэри / Proud Mary | Лицензия BD EUR | BD Remux 1080p bober100 Скачать
1 | 0
Фильмы 2018 [DVDrip, WEB-DLRip, HDrip] (DUB, MVO) [ 746 MB ] Гордая Мэри / Proud Mary | Лицензия BD EUR | BDRip bober100 Скачать
1 | 0
Фильмы [HD 720p, 1080p] (Хороший звук DUB, MVO) [ 7.19 GB ] Гордая Мэри / Proud Mary | Лицензия BD EUR | 1080p bober100 Скачать
1 | 0
Фильмы [HD 720p, 1080p] (Хороший звук DUB, MVO) [ 3.86 GB ] Гордая Мэри / Proud Mary | Лицензия BD EUR | 720p bober100 Скачать
1 | 0
Фильмы 2018 [DVDrip, WEB-DLRip, HDrip] (DUB, MVO) [ 1.44 GB ] Гордая Мэри / Proud Mary | Лицензия | BDRip-AVC Enigma2010 Скачать
1 | 0
Фильмы 2018 [DVDrip, WEB-DLRip, HDrip] (DUB, MVO) [ 1.11 GB ] Гордая Мэри / Proud Mary | Лицензия | BDRip-AVC White Smoke Скачать
1 | 0
Фильмы 2018 [DVDrip, WEB-DLRip, HDrip] (DUB, MVO) [ 1.46 GB ] Гордая Мэри / Proud Mary | Лицензия | BDRip Twi7ter Скачать
1 | 0

28-11-2019 20:33  


Отключить вcю реклaмy на сайте, в т.ч. и в плеере онлайн просмотра!

    Дорогой пользователь! Огромная просьба, поблагодарите релизера, оцените раздачу и оставьте свои комментарий, если Вы скачали Гордая Мэри через торрент бесплатно!!
    Комментировать посты могут только пользователи прошедшие не сложную регистрацию
    Показать сообщения:    


    Гордая Мэри через торрент
    Скачать бесплатно Гордая Мэри
    Гордая Мэри скачать торрент
    Гордая Мэри смотреть онлайн
    Cкачать фильм Гордая Мэри бесплатно
    Гордая Мэри скачать торрент в хорошем качестве
    Гордая Мэри смотреть онлайн бесплатно в хорошем качестве
    Вы не можете начинать темы
    Вы не можете отвечать на сообщения
    Вы не можете редактировать свои сообщения
    Вы не можете удалять свои сообщения
    Вы не можете голосовать в опросах
    Вы не можете прикреплять файлы к сообщениям
    Вы можете скачивать файлы
    Гордая Мэри / Proud Mary [2018, боевик, триллер, UHD WEBRip 2160p] [HDR] 2xMVO [HDRezka, iTunes] смотреть онлайн, скачать торрент picoco.icu