Лицензия

MVO

1

1 сезон

Лицензия

Лицензия

13

MVO

1 сезон

Deluxe Edition

pack

Рекомендуем

30

Repack

ВАЖНО

ВАЖНО

Ghostwire

RePack

jed

RePack

fifa19

RePack

RDR2

RePack

NEED FOR SPEED™ PAYBACK

RePack

Кинопоиск HD

 Острые козырьки 6 сезон

6 сезон

FAR CRY 6

RePack

Лицензия

MVO

1

1 сезон

1 сезон

Лицензия

  

Нейлон 100% (Владимир Басов) [1973 г., Комедия, DVDRip]

Нейлон 100% через торрент piratbit.org

Размер: 1.37 GB | Добавлен: 4 года 2 мес. назад | Торрент скачан:30 раз
Смотреть онлайн Нейлон 100% | Скачать   

17-07-2018 14:42 Нейлон 100% Скачать торрент  

Нейлон 100%
Год выпуска: 1973
Страна: СССР
Жанр: Комедия
Продолжительность: 01:21:21
Субтитры: Отсутствуют

Режиссер: Владимир Басов



В ролях: Владимир Басов, Валентина Титова, Нина Агапова, Михаил Погоржельский, Микаэла Дроздовская, Евгений Весник, Евгений Евстигнеев, Леонид Куравлев, Нина Крачковская, Михаил Пуговкин, Муза Крепкогорская, Леонид Каневский, Владимир Этуш, Юрий Белов, Тамара Совчи, Светлана Харитонова

Описание: Нейлоновая шубка, сверхдефицитная вещь, попадает в комиссионку по смешной цене. Продавщицы сначала решают поносить ее по очереди, а затем шубка начинает гулять по рукам. Она побывала у артистов, адвоката, спекулянта, зубного техника. А потом находится самый необычный покупатель — знаменитый коневод.

Качество: DVDRip
Формат: AVI
Видео кодек: XviD
Аудио кодек: AC3
Видео: XviD, 704x528 , 25.0fps, 2144 Kbps
Аудио#1: AC3 , 2 ch , 48 kHz , 256 kbps
General
Complete name : D:\NEILON DVDRip
Format : AVI
Format/Info : Audio Video Interleave
File size : 1.37 GiB
Duration : 1 h 21 min
Overall bit rate : 2 410 kb/s

Video
ID : 0
Format : MPEG-4 Visual
Format profile : Advanced Simple@L5
Format settings : BVOP1 / Custom Matrix
Format settings, BVOP : 1
Format settings, QPel : No
Format settings, GMC : No warppoints
Format settings, Matrix : Custom
Codec ID : XVID
Codec ID/Hint : XviD
Duration : 1 h 21 min
Bit rate : 2 144 kb/s
Width : 704 pixels
Height : 528 pixels
Display aspect ratio : 4:3
Frame rate : 25.000 FPS
Color space : YUV
Chroma subsampling : 4:2:0
Bit depth : 8 bits
Scan type : Progressive
Compression mode : Lossy
Bits/(Pixel*Frame) : 0.231
Stream size : 1.22 GiB (89%)
Writing library : XviD 73

Audio
ID : 1
Format : AC-3
Format/Info : Audio Coding 3
Format settings, Endianness : Big
Codec ID : 2000
Duration : 1 h 21 min
Bit rate mode : Constant
Bit rate : 256 kb/s
Channel(s) : 2 channels
Channel positions : Front: L R
Sampling rate : 48.0 kHz
Frame rate : 31.250 FPS (1536 SPF)
Bit depth : 16 bits
Compression mode : Lossy
Stream size : 149 MiB (11%)
Alignment : Split accross interleaves
Interleave, duration : 40 ms (1.00 video frame)
Interleave, preload duratio : 500 ms
Service kind : Complete Main




Скачать Нейлон 100% через торрент https://a.radikal.ru/a32/1807/b0/8bd0f9825bdb.png Скачать, смотреть онлайн Нейлон 100% бесплантно в хорошем качестве Описание: Нейлоновая шубка, сверхдефицитная вещь, попадает в комиссионку по смешной цене. Продавщицы сначала решают поносить ее по очереди, ... 10 10 5
Торрент: Зарегистрирован [2018-07-17 14:42] · скачан: 30 раз
Статус: √ проверено
Размер: 1.37 GB
Как cкачать? Как скачать Нейлон 100% через торрент | UTorrent

28-11-2019 20:33  

Отключить вcю реклaмy на сайте

    Дорогой пользователь! Огромная просьба, поблагодарите релизера, оцените раздачу и оставьте свои комментарий, если Вы скачали Нейлон 100% через торрент бесплатно!!
    Комментировать посты могут только пользователи прошедшие не сложную регистрацию
    Показать сообщения:    


    Нейлон 100% через торрент
    Скачать бесплатно Нейлон 100%
    Нейлон 100% скачать торрент
    Нейлон 100% смотреть онлайн
    Cкачать фильм Нейлон 100% бесплатно
    Нейлон 100% скачать торрент в хорошем качестве
    Нейлон 100% смотреть онлайн бесплатно в хорошем качестве
    Вы не можете начинать темы
    Вы не можете отвечать на сообщения
    Вы не можете редактировать свои сообщения
    Вы не можете удалять свои сообщения
    Вы не можете голосовать в опросах
    Вы не можете прикреплять файлы к сообщениям
    Вы можете скачивать файлы