Достать ножи: Стеклянная луковица

MVO

Добыча

Дубляж

Уэнсдэй

1 сезон

Тор

Дубляж

13 клиническая

1 сезон

Жестокая ночь

MVO

Одни из нас

1 сезон

Deluxe

pack

Рекомендуем

30

Пиратка

ВАЖНО

ВАЖНО

Ghostwire

Пиратка

jed

RePack

nioh2

RePack

RDR2

RePack

NEED FOR SPEED™ PAYBACK

RePack

скачать торрент

Кинопоиск HD

Острые козырьки 6 сезон

6 сезон

FAR CRY 6

RePack

скачать торрент

Лицензия

скачать торрент

MVO

1

1 сезон

скачать торрент

1 сезон

скачать торрент

Лицензия

  

Быстрый и мертвый / The Quick and the Dead (Сэм Рэйми) [1995, вестерн, боевик, триллер, UHD BDRip 2160p] Дубляж [Театральная версия]

Быстрый и мертвый через торрент piratbit.org

Размер: 32.82 GB | Добавлен: 4 года 6 мес. назад | Торрент скачан:62 раза
Смотреть онлайн | Скачать | Поддержите нас   

20-07-2018 09:27 Быстрый и мертвый Скачать торрент  

Быстрый и мертвый / The Quick and the Dead

Год выпуска: 1995
Страна: США, Япония
Жанр: вестерн, боевик, триллер
Продолжительность: 01:45:05
Перевод: Дублированный
Субтитры: Английские, испанские, французские
Режиссер: Сэм Рэйми
В ролях:

Шэрон Стоун (Ellen), Рассел Кроу (Cort), Джин Хэкмен (Herod), Леонардо ДиКаприо (Kid), Тобин Белл (Dog Kelly), Кит Дэвид (Sgt. Cantrell), Лэнс Хенриксен (Ace Hanlon), Гэри Синиз (Marshall), Робертс Блоссом (Doc Wallace), Кевин Конуэй (Eugene Dred), Пэт Хингл (Horace the Bartender), Марк Бун Джуниор (Scars)
Описание:
Пустыня, и посреди нее - маленький грязный городок. Здесь только женщины и больные не носят кобуры на поясе. В городе хозяйничает Джон Ирод - жестокий и хладнокровный человек. Все его боятся, и каждая собака его знает. Если он разрешил тебе - ты можешь жить.
Рейтинг:

MPAA: R - Лицам до 17 лет обязательно присутствие взрослого
Качество: UHD BDRip 2160p
Формат: MKV
Видео: HEVC, 38400 Кбит/с, 3840x2076, 23.976 кадр/с
Аудио: Русский (АС3, 6 ch, 384 Кбит/с, 48.0 KHz) / Дубляж
Аудио: Английский (TrueHD+Atmos, 8 ch, 5167 Кбит/с, 48.0 KHz)
Аудио: Английский (АС3, 6 ch, 640 Кбит/с, 48.0 KHz)
Общее
Уникальный идентификатор : 245179471458506749009083218316144551267 (0xB873D93CBDEB2DA3A69995CC633E2563)
Полное имя : G:\The.Quick.and.the.Dead.1995.2160p.BluRay.10bit.HEVC.HDR.4K.x265.Master5.mkv
Формат : Matroska
Версия формата : Version 4 / Version 2
Размер файла : 32,8 Гбайт
Продолжительность : 1 ч. 45 м.
Режим общего битрейта : Переменный
Общий поток : 44,7 Мбит/сек
Название фильма : The.Quick.and.the.Dead.1995.2160p.BluRay.10bit.HEVC.HDR.4K.x265.Master5
Дата кодирования : UTC 2018-07-16 14:27:00
Программа кодирования : mkvmerge v7.9.0 ('Birds') 64bit
Библиотека кодирования : libebml v1.3.1 + libmatroska v1.4.2

Видео
Идентификатор : 1
Формат : HEVC
Формат/Информация : High Efficiency Video Coding
Коммерческое название : HDR10
Профиль формата : Main 10@L5.1@High
Идентификатор кодека : V_MPEGH/ISO/HEVC
Продолжительность : 1 ч. 45 м.
Битрейт : 38,4 Мбит/сек
Ширина : 3840 пикселей
Высота : 2076 пикселей
Соотношение сторон : 1,85:1
Режим частоты кадров : Постоянный
Частота кадров : 23,976 (24000/1001) кадра/сек
Цветовое пространство : YUV
Субдискретизация насыщенности : 4:2:0 (Type 2)
Битовая глубина : 10 бит
Бит/(Пиксели*Кадры) : 0.201
Размер потока : 28,2 Гбайт (86%)
Заголовок : The.Quick.and.the.Dead.1995.2160p.BluRay.10bit.HEVC.HDR.4K.x265.Master5
Библиотека кодирования : x265 2.8+10-703eade86b53:[Windows][MSVC 1914][64 bit] 10bit
Настройки программы : cpuid=1111039 / frame-threads=4 / numa-pools=20 / wpp / no-pmode / no-pme / no-psnr / no-ssim / log-level=2 / input-csp=1 / input-res=3840x2076 / interlace=0 / total-frames=151200 / level-idc=51 / high-tier=1 / uhd-bd=0 / ref=4 / no-allow-non-conformance / repeat-headers / annexb / aud / hrd / info / hash=0 / no-temporal-layers / no-open-gop / min-keyint=1 / keyint=24 / gop-lookahead=0 / bframes=4 / b-adapt=2 / b-pyramid / bframe-bias=0 / rc-lookahead=25 / lookahead-slices=4 / scenecut=40 / radl=0 / no-intra-refresh / ctu=64 / min-cu-size=8 / rect / no-amp / max-tu-size=32 / tu-inter-depth=1 / tu-intra-depth=1 / limit-tu=0 / rdoq-level=2 / dynamic-rd=0.00 / no-ssim-rd / signhide / no-tskip / nr-intra=0 / nr-inter=0 / no-constrained-intra / no-strong-intra-smoothing / max-merge=3 / limit-refs=3 / limit-modes / me=3 / subme=3 / merange=57 / temporal-mvp / weightp / no-weightb / no-analyze-src-pics / deblock=-3:-3 / no-sao / no-sao-non-deblock / rd=4 / no-early-skip / rskip / no-fast-intra / no-tskip-fast / no-cu-lossless / no-b-intra / no-splitrd-skip / rdpenalty=0 / psy-rd=2.00 / psy-rdoq=1.00 / no-rd-refine / no-lossless / cbqpoffs=0 / crqpoffs=0 / rc=crf / crf=18.0 / qcomp=0.60 / qpstep=4 / stats-write=0 / stats-read=0 / vbv-maxrate=160000 / vbv-bufsize=160000 / vbv-init=0.9 / crf-max=0.0 / crf-min=0.0 / ipratio=1.40 / pbratio=1.30 / aq-mode=1 / aq-strength=1.00 / cutree / zone-count=0 / no-strict-cbr / qg-size=32 / no-rc-grain / qpmax=69 / qpmin=0 / no-const-vbv / sar=1 / overscan=0 / videoformat=5 / range=0 / colorprim=9 / transfer=16 / colormatrix=9 / chromaloc=1 / chromaloc-top=2 / chromaloc-bottom=2 / display-window=0 / master-display=G(13250,34500)B(7500,3000)R(34000,16000)WP(15635,16450)L(40000000,50) / max-cll=3227,385 / min-luma=0 / max-luma=1023 / log2-max-poc-lsb=8 / vui-timing-info / vui-hrd-info / slices=1 / no-opt-qp-pps / no-opt-ref-list-length-pps / no-multi-pass-opt-rps / scenecut-bias=0.05 / no-opt-cu-delta-qp / no-aq-motion / hdr / hdr-opt / no-dhdr10-opt / no-idr-recovery-sei / analysis-reuse-level=5 / scale-factor=0 / refine-intra=0 / refine-inter=0 / refine-mv=0 / no-limit-sao / ctu-info=0 / no-lowpass-dct / refine-mv-type=0 / copy-pic=1 / max-ausize-factor=1.0 / no-dynamic-refine / no-single-sei
Default : Да
Forced : Нет
Цветовой диапазон : Limited
Основные цвета : BT.2020
Характеристики трансфера : PQ
Коэффициенты матрицы : BT.2020 non-constant
MasteringDisplay_ColorPrimaries : Display P3
MasteringDisplay_Luminance : min: 0.0050 cd/m2, max: 4000 cd/m2
MaxCLL : 3227 cd/m2
MaxFALL : 385 cd/m2

Аудио #1
Идентификатор : 2
Формат : AC-3
Формат/Информация : Audio Coding 3
Идентификатор кодека : A_AC3
Продолжительность : 1 ч. 45 м.
Вид битрейта : Постоянный
Битрейт : 384 Кбит/сек
Каналы : 6 каналов
Расположение каналов : Front: L C R, Side: L R, LFE
Частота : 48,0 КГц
Частота кадров : 31,250 кадров/сек (1536 SPF)
Битовая глубина : 16 бит
Метод сжатия : С потерями
Размер потока : 289 Мбайт (1%)
Заголовок : Dubbing
Язык : Russian
ServiceKind/String : Complete Main
Default : Нет
Forced : Нет

Аудио #2
Идентификатор : 3
Формат : TrueHD
Профиль формата : TrueHD+Atmos / TrueHD
Идентификатор кодека : A_TRUEHD
Продолжительность : 1 ч. 45 м.
Вид битрейта : Переменный
Битрейт : 5167 Кбит/сек
Максимальный битрейт : 8103 Кбит/сек
Каналы : Object Based / 8 каналов
Расположение каналов : Object Based / Front: L C R, Side: L R, Back: L R, LFE
Частота : / 48,0 КГц
Частота кадров : 1200,000 кадров/сек (40 SPF)
Метод сжатия : Без потерь
Размер потока : 3,79 Гбайт (12%)
Язык : English
Default : Нет
Forced : Нет

Аудио #3
Идентификатор : 4
Формат : AC-3
Формат/Информация : Audio Coding 3
Идентификатор кодека : A_AC3
Продолжительность : 1 ч. 45 м.
Вид битрейта : Постоянный
Битрейт : 640 Кбит/сек
Каналы : 6 каналов
Расположение каналов : Front: L C R, Side: L R, LFE
Частота : 48,0 КГц
Частота кадров : 31,250 кадров/сек (1536 SPF)
Битовая глубина : 16 бит
Метод сжатия : С потерями
Размер потока : 481 Мбайт (1%)
Язык : English
ServiceKind/String : Complete Main
Default : Нет
Forced : Нет

Текст #1
Идентификатор : 5
Формат : PGS
Режим смешивания : zlib
Идентификатор кодека : S_HDMV/PGS
Идентификатор кодека/Информация : Picture based subtitle format used on BDs/HD-DVDs
Продолжительность : 1 ч. 41 м.
Битрейт : 11,7 Кбит/сек
ElementCount : 2603
Размер потока : 8,53 Мбайт (0%)
Заголовок : English SDH
Язык : English
Default : Нет
Forced : Нет

Текст #2
Идентификатор : 6
Формат : PGS
Режим смешивания : zlib
Идентификатор кодека : S_HDMV/PGS
Идентификатор кодека/Информация : Picture based subtitle format used on BDs/HD-DVDs
Продолжительность : 1 ч. 39 м.
Битрейт : 9351 бит/сек
ElementCount : 1749
Размер потока : 6,66 Мбайт (0%)
Язык : English
Default : Нет
Forced : Нет

Текст #3
Идентификатор : 7
Формат : PGS
Режим смешивания : zlib
Идентификатор кодека : S_HDMV/PGS
Идентификатор кодека/Информация : Picture based subtitle format used on BDs/HD-DVDs
Продолжительность : 1 ч. 43 м.
Битрейт : 7483 бит/сек
ElementCount : 1532
Размер потока : 5,55 Мбайт (0%)
Язык : French
Default : Нет
Forced : Нет

Текст #4
Идентификатор : 8
Формат : PGS
Режим смешивания : zlib
Идентификатор кодека : S_HDMV/PGS
Идентификатор кодека/Информация : Picture based subtitle format used on BDs/HD-DVDs
Продолжительность : 1 ч. 40 м.
Битрейт : 9539 бит/сек
ElementCount : 1760
Размер потока : 6,83 Мбайт (0%)
Язык : Spanish
Default : Нет
Forced : Нет



Скачать Быстрый и мертвый через торрент https://b.radikal.ru/b36/1807/e3/264a96221527.png Скачать, смотреть онлайн Быстрый и мертвый бесплантно в хорошем качестве Описание: Пустыня, и посреди нее - маленький грязный городок. Здесь только женщины и больные не носят кобуры на поясе. В городе хозяйничает ... 10 10 3
Info! Золотая раздача, скачанное не засчитывается.
Торрент: Зарегистрирован [2018-07-20 09:27] · скачан: 62 раз
Статус: √ проверено
Размер: 32.82 GB
Как cкачать? Как скачать Быстрый и мертвый через торрент | UTorrent

% Раздел Тема Автор DL S | L
Фильмы [HD 720p, 1080p] (Хороший звук DUB, MVO) [ 9.83 GB ] Быстрый и мёртвый / The Quick and the Dead | DUB + 2хMVO + 2хAVO | 1080p RealOldGamer Скачать
2 | 0
Ultra HD (UHD: 2K, 4K, 8K) [ 52.56 GB ] Быстрый и мертвый / The Quick and the Dead | DUB + 2xMVO + 2xAVO | 2160p sheker187 Скачать
1 | 0
Ultra HD (UHD: 2K, 4K, 8K) [ 45.33 GB ] Быстрый и мертвый / The Quick and the Dead | Дубляж | 2160p sheker187 Скачать
1 | 0
Фильмы [HD 720p, 1080p] (Хороший звук DUB, MVO) [ 11.64 GB ] Быстрый и мертвый / The Quick and the Dead | DUB | 720p Kavasar Скачать
1 | 0
Фильмы до 2000 г. [ 2.1 GB ] Быстрый и мертвый / The Quick and the Dead | DUB | 720p stalonе Скачать
1 | 0
Фильмы с авторской озвучкой [ 1.39 GB ] Быстрый и мертвый / The Quick and the Dead | AVO | BDRip killermax2013 Скачать
1 | 0
Фильмы (Blu-ray, BD-Remux, HDDVD) [ 24.73 GB ] Быстрый и мертвый / The Quick and the Dead | DUB + MVO + Sub rus + eng + original eng | 1080p Ворон Скачать
1 | 0

28-11-2019 20:33  


Отключить вcю реклaмy на сайте, в т.ч. и в плеере онлайн просмотра!

22-07-2018 06:27 Быстрый и мертвый Скачать торрент  

крутое кино!спасибо!



    Дорогой пользователь! Огромная просьба, поблагодарите релизера, оцените раздачу и оставьте свои комментарий, если Вы скачали Быстрый и мертвый через торрент бесплатно!!
    Комментировать посты могут только пользователи прошедшие не сложную регистрацию
    Показать сообщения:    


    Быстрый и мертвый через торрент
    Скачать бесплатно Быстрый и мертвый
    Быстрый и мертвый скачать торрент
    Быстрый и мертвый смотреть онлайн
    Cкачать фильм Быстрый и мертвый бесплатно
    Быстрый и мертвый скачать торрент в хорошем качестве
    Быстрый и мертвый смотреть онлайн бесплатно в хорошем качестве
    Вы не можете начинать темы
    Вы не можете отвечать на сообщения
    Вы не можете редактировать свои сообщения
    Вы не можете удалять свои сообщения
    Вы не можете голосовать в опросах
    Вы не можете прикреплять файлы к сообщениям
    Вы можете скачивать файлы
    Быстрый и мертвый / The Quick and the Dead [1995, вестерн, боевик, триллер, UHD BDRip 2160p] Дубляж [Театральная версия] смотреть онлайн, скачать торрент picoco.icu