Достать ножи: Стеклянная луковица

MVO

Добыча

Дубляж

Уэнсдэй

1 сезон

Тор

Дубляж

13 клиническая

1 сезон

Жестокая ночь

MVO

Одни из нас

1 сезон

Deluxe

pack

Рекомендуем

30

Пиратка

ВАЖНО

ВАЖНО

Ghostwire

Пиратка

jed

RePack

nioh2

RePack

RDR2

RePack

NEED FOR SPEED™ PAYBACK

RePack

скачать торрент

Кинопоиск HD

Острые козырьки 6 сезон

6 сезон

FAR CRY 6

RePack

скачать торрент

Лицензия

скачать торрент

MVO

1

1 сезон

скачать торрент

1 сезон

скачать торрент

Лицензия

  

Няня / The Babysitter (МакДжи) [2017, ужасы, комедия, драма, UHD WEBRip 2160p] MVO [HDRezka]

Няня через торрент piratbit.org

Размер: 20.79 GB | Добавлен: 4 года 6 мес. назад | Торрент скачан:54 раза
Смотреть онлайн | Скачать | Поддержите нас   

21-07-2018 09:29 Няня Скачать торрент  

Няня / The Babysitter

Год выпуска: 2017
Страна: США
Жанр: ужасы, комедия, драма
Продолжительность: 01:25:13
Перевод: Профессиональный многоголосый [HDRezka]
Субтитры: Английские (Forced, Full), болгарские, датские, немецкие, греческие, испанские, финские, французские, иврит, итальянские, японские, корейские, голландские, польские, португальские (Европа), португальские, румынские, шведские, тайские, турецкие, китайские
Режиссер: МакДжи
В ролях:

Джуда Льюис (Cole), Самара Уивинг (Bee), Робби Амелл (Max), Хана Мэй Ли (Sonya), Белла Торн (Allison), Эмили Элин Линд (Melanie), Эндрю Бэчелор (John), Даг Хейли (Samuel), Лесли Бибб (Mom), Кен Марино (Dad), Сэмюэл Гилберт (Romeo), Захари Александр Райс (Luis)
Описание:
Коул по уши влюблён в свою няню Би - красивую, весёлую, умную и уверенную в себе девушку. Однажды ночью мальчишка решает не ложиться спать и проследить за ней. Но события принимают неожиданный поворот: няня оказывается хладнокровной убийцей, служащей самому дьяволу.
Рейтинг:

Качество: UHD WEBRip 2160p
Формат: MKV
Видео: MPEG-4 AVC, High@L5.1, 8 bits, 34.5 Mбит/с, 3840x1604, 23.976 кадр/с
Аудио: Русский (AC3, 2 ch, 384 Кбит/с) / Профессиональный многоголосный (HDRezka)
Аудио: Английский (AC3, 6 ch, 384 Кбит/с)
Без рекламы
General
Unique ID : 121119556515298099258438927126934122786 (0x5B1EC72FE1CB55F8D54E769667D8F122)
Complete name : C:UsersPublicVideosSample VideosFilmyThe.Babysitter.2017.2160p.NF.WEBRip.MediaClub.mkv
Format : Matroska
Format version : Version 4 / Version 2
File size : 20.8 GiB
Duration : 1 h 25 min
Overall bit rate : 34.9 Mb/s
Encoded date : UTC 2018-07-11 09:25:06
Writing application : mkvmerge v19.0.0 ('Brave Captain') 64-bit
Writing library : libebml v1.3.5 + libmatroska v1.4.8
Cover : Yes
Attachments : cover.jpg

Video
ID : 1
Format : AVC
Format/Info : Advanced Video Codec
Format profile : High@L5.1
Format settings : CABAC / 5 Ref Frames
Format settings, CABAC : Yes
Format settings, RefFrames : 5 frames
Codec ID : V_MPEG4/ISO/AVC
Duration : 1 h 24 min
Bit rate : 34.5 Mb/s
Width : 3 840 pixels
Height : 1 604 pixels
Display aspect ratio : 2.40:1
Frame rate mode : Constant
Frame rate : 23.976 (24000/1001) FPS
Color space : YUV
Chroma subsampling : 4:2:0
Bit depth : 8 bits
Scan type : Progressive
Bits/(Pixel*Frame) : 0.234
Stream size : 20.4 GiB (98%)
Title : WEBRip.2160p.x264 by Silverok
Writing library : x264 core 148 r2744 b97ae06
Encoding settings : cabac=1 / ref=5 / deblock=1:-3:-3 / analyse=0x3:0x133 / me=umh / subme=10 / psy=1 / psy_rd=1.00:0.00 / mixed_ref=1 / me_range=48 / chroma_me=1 / trellis=2 / 8x8dct=1 / cqm=0 / deadzone=21,11 / fast_pskip=1 / chroma_qp_offset=-2 / threads=24 / lookahead_threads=4 / sliced_threads=0 / nr=0 / decimate=0 / interlaced=0 / bluray_compat=0 / constrained_intra=0 / bframes=8 / b_pyramid=2 / b_adapt=2 / b_bias=0 / direct=3 / weightb=1 / open_gop=0 / weightp=2 / keyint=240 / keyint_min=23 / scenecut=40 / intra_refresh=0 / rc_lookahead=60 / rc=crf / mbtree=1 / crf=17.0 / qcomp=0.70 / qpmin=0 / qpmax=69 / qpstep=4 / ip_ratio=1.30 / aq=3:0.70
Default : Yes
Forced : No

Audio #1
ID : 2
Format : AC-3
Format/Info : Audio Coding 3
Codec ID : A_AC3
Duration : 1 h 25 min
Bit rate mode : Constant
Bit rate : 192 kb/s
Channel(s) : 2 channels
Channel positions : Front: L R
Sampling rate : 48.0 kHz
Frame rate : 31.250 FPS (1536 SPF)
Bit depth : 16 bits
Compression mode : Lossy
Stream size : 117 MiB (1%)
Title : Профессиональный многоголосый (HDRezka)
Language : Russian
Service kind : Complete Main
Default : Yes
Forced : No

Audio #2
ID : 3
Format : AC-3
Format/Info : Audio Coding 3
Codec ID : A_AC3
Duration : 1 h 25 min
Bit rate mode : Constant
Bit rate : 384 kb/s
Channel(s) : 6 channels
Channel positions : Front: L C R, Side: L R, LFE
Sampling rate : 48.0 kHz
Frame rate : 31.250 FPS (1536 SPF)
Bit depth : 16 bits
Compression mode : Lossy
Stream size : 234 MiB (1%)
Language : English
Service kind : Complete Main
Default : No
Forced : No

Text #1
ID : 4
Format : UTF-8
Codec ID : S_TEXT/UTF8
Codec ID/Info : UTF-8 Plain Text
Duration : 1 s 919 ms
Bit rate : 87 b/s
Count of elements : 1
Stream size : 21.0 Bytes (0%)
Title : Forced
Language : English
Default : Yes
Forced : No

Text #2
ID : 5
Format : UTF-8
Codec ID : S_TEXT/UTF8
Codec ID/Info : UTF-8 Plain Text
Duration : 1 h 21 min
Bit rate : 69 b/s
Count of elements : 1304
Stream size : 41.0 KiB (0%)
Title : Full
Language : English
Default : No
Forced : No

Text #3
ID : 6
Format : UTF-8
Codec ID : S_TEXT/UTF8
Codec ID/Info : UTF-8 Plain Text
Duration : 1 h 24 min
Bit rate : 96 b/s
Count of elements : 1121
Stream size : 59.8 KiB (0%)
Language : Arabic
Default : No
Forced : No

Text #4
ID : 7
Format : UTF-8
Codec ID : S_TEXT/UTF8
Codec ID/Info : UTF-8 Plain Text
Duration : 1 h 20 min
Bit rate : 90 b/s
Count of elements : 1166
Stream size : 53.8 KiB (0%)
Language : Bulgarian
Default : No
Forced : No

Text #5
ID : 8
Format : UTF-8
Codec ID : S_TEXT/UTF8
Codec ID/Info : UTF-8 Plain Text
Duration : 1 h 24 min
Bit rate : 53 b/s
Count of elements : 1042
Stream size : 32.8 KiB (0%)
Language : Danish
Default : No
Forced : No

Text #6
ID : 9
Format : UTF-8
Codec ID : S_TEXT/UTF8
Codec ID/Info : UTF-8 Plain Text
Duration : 1 h 24 min
Bit rate : 56 b/s
Count of elements : 1012
Stream size : 35.1 KiB (0%)
Language : German
Default : No
Forced : No

Text #7
ID : 10
Format : UTF-8
Codec ID : S_TEXT/UTF8
Codec ID/Info : UTF-8 Plain Text
Duration : 1 h 21 min
Bit rate : 95 b/s
Count of elements : 1114
Stream size : 56.6 KiB (0%)
Language : Greek
Default : No
Forced : No

Text #8
ID : 11
Format : UTF-8
Codec ID : S_TEXT/UTF8
Codec ID/Info : UTF-8 Plain Text
Duration : 1 h 24 min
Bit rate : 51 b/s
Count of elements : 1085
Stream size : 31.6 KiB (0%)
Language : Spanish
Default : No
Forced : No

Text #9
ID : 12
Format : UTF-8
Codec ID : S_TEXT/UTF8
Codec ID/Info : UTF-8 Plain Text
Duration : 1 h 21 min
Bit rate : 48 b/s
Count of elements : 878
Stream size : 28.6 KiB (0%)
Language : Finnish
Default : No
Forced : No

Text #10
ID : 13
Format : UTF-8
Codec ID : S_TEXT/UTF8
Codec ID/Info : UTF-8 Plain Text
Duration : 1 h 24 min
Bit rate : 51 b/s
Count of elements : 1069
Stream size : 32.0 KiB (0%)
Language : French
Default : No
Forced : No

Text #11
ID : 14
Format : UTF-8
Codec ID : S_TEXT/UTF8
Codec ID/Info : UTF-8 Plain Text
Duration : 1 h 24 min
Bit rate : 88 b/s
Count of elements : 1127
Stream size : 54.7 KiB (0%)
Language : Hebrew
Default : No
Forced : No

Text #12
ID : 15
Format : UTF-8
Codec ID : S_TEXT/UTF8
Codec ID/Info : UTF-8 Plain Text
Duration : 1 h 24 min
Bit rate : 57 b/s
Count of elements : 1116
Stream size : 35.2 KiB (0%)
Language : Italian
Default : No
Forced : No

Text #13
ID : 16
Format : UTF-8
Codec ID : S_TEXT/UTF8
Codec ID/Info : UTF-8 Plain Text
Duration : 1 h 24 min
Bit rate : 42 b/s
Count of elements : 1129
Stream size : 26.3 KiB (0%)
Language : Japanese
Default : No
Forced : No

Text #14
ID : 17
Format : UTF-8
Codec ID : S_TEXT/UTF8
Codec ID/Info : UTF-8 Plain Text
Duration : 1 h 24 min
Bit rate : 60 b/s
Count of elements : 1142
Stream size : 37.3 KiB (0%)
Language : Korean
Default : No
Forced : No

Text #15
ID : 18
Format : UTF-8
Codec ID : S_TEXT/UTF8
Codec ID/Info : UTF-8 Plain Text
Duration : 1 h 24 min
Bit rate : 45 b/s
Count of elements : 875
Stream size : 28.3 KiB (0%)
Language : Dutch
Default : No
Forced : No

Text #16
ID : 19
Format : UTF-8
Codec ID : S_TEXT/UTF8
Codec ID/Info : UTF-8 Plain Text
Duration : 1 h 24 min
Bit rate : 46 b/s
Count of elements : 1099
Stream size : 28.7 KiB (0%)
Language : Polish
Default : No
Forced : No

Text #17
ID : 20
Format : UTF-8
Codec ID : S_TEXT/UTF8
Codec ID/Info : UTF-8 Plain Text
Duration : 1 h 24 min
Bit rate : 54 b/s
Count of elements : 1100
Stream size : 34.0 KiB (0%)
Language : Portuguese
Default : No
Forced : No

Text #18
ID : 21
Format : UTF-8
Codec ID : S_TEXT/UTF8
Codec ID/Info : UTF-8 Plain Text
Duration : 1 h 21 min
Bit rate : 58 b/s
Count of elements : 1121
Stream size : 34.9 KiB (0%)
Language : Portuguese
Default : No
Forced : No

Text #19
ID : 22
Format : UTF-8
Codec ID : S_TEXT/UTF8
Codec ID/Info : UTF-8 Plain Text
Duration : 1 h 24 min
Bit rate : 50 b/s
Count of elements : 1115
Stream size : 31.5 KiB (0%)
Language : Romanian
Default : No
Forced : No

Text #20
ID : 23
Format : UTF-8
Codec ID : S_TEXT/UTF8
Codec ID/Info : UTF-8 Plain Text
Duration : 1 h 24 min
Bit rate : 50 b/s
Count of elements : 899
Stream size : 31.0 KiB (0%)
Language : Swedish
Default : No
Forced : No

Text #21
ID : 24
Format : UTF-8
Codec ID : S_TEXT/UTF8
Codec ID/Info : UTF-8 Plain Text
Duration : 1 h 24 min
Bit rate : 114 b/s
Count of elements : 1124
Stream size : 71.1 KiB (0%)
Language : Thai
Default : No
Forced : No

Text #22
ID : 25
Format : UTF-8
Codec ID : S_TEXT/UTF8
Codec ID/Info : UTF-8 Plain Text
Duration : 1 h 24 min
Bit rate : 52 b/s
Count of elements : 1100
Stream size : 32.8 KiB (0%)
Language : Turkish
Default : No
Forced : No

Text #23
ID : 26
Format : UTF-8
Codec ID : S_TEXT/UTF8
Codec ID/Info : UTF-8 Plain Text
Duration : 1 h 24 min
Bit rate : 44 b/s
Count of elements : 1129
Stream size : 27.8 KiB (0%)
Language : Chinese
Default : No
Forced : No

Text #24
ID : 27
Format : UTF-8
Codec ID : S_TEXT/UTF8
Codec ID/Info : UTF-8 Plain Text
Duration : 1 h 24 min
Bit rate : 50 b/s
Count of elements : 1128
Stream size : 30.9 KiB (0%)
Language : Chinese
Default : No
Forced : No



Скачать Няня через торрент https://a.radikal.ru/a12/1807/d7/0f5ea843794d.png Скачать, смотреть онлайн Няня бесплантно в хорошем качестве Описание: Коул по уши влюблён в свою няню Би - красивую, весёлую, умную и уверенную в себе девушку. Однажды ночью мальчишка решает не ... 10 10 5
Торрент: Зарегистрирован [2018-07-21 09:29] · скачан: 54 раз
Статус: √ проверено
Размер: 20.79 GB
Как cкачать? Как скачать Няня через торрент | UTorrent

% Раздел Тема Автор DL S | L
Фильмы 2019-2020 [DVDrip, WEB-DLRip, HDrip] (DUB, MVO) [ 748 MB ] Няня. Королева проклятых / Няня: Королева убийц / The Babysitter: Killer Queen | HDRezka Studio | DLRip bober100 Скачать
1 | 0
Фильмы 2019-2020 [DVDrip, WEB-DLRip, HDrip] (DUB, MVO) [ 1.46 GB ] Няня. Королева проклятых / Няня: Королева убийц / The Babysitter: Killer Queen | HDRezka Studio | DLRip bober100 Скачать
1 | 0
Фильмы 2019-2020 [DVDrip, WEB-DLRip, HDrip] (DUB, MVO) [ 750 MB ] Няня. Королева проклятых / The Babysitter: Killer Queen | HDRezka Studio | DLRip-AVC Lithuania Скачать
1 | 0
Фильмы (WEB-DL 720p, 1080p) [ 4.63 GB ] Няня. Королева проклятых / Няня: Королева убийц / The Babysitter: Killer Queen | HDRezka Studio | 1080p killermax2013 Скачать
2 | 0
Фильмы (WEB-DL 720p, 1080p) [ 8.33 GB ] Няня / The Babysitter | Jaskier | 1080p bober100 Скачать
1 | 0
Фильмы (WEB-DL 720p, 1080p) [ 3.04 GB ] Няня / The Babysitter | Jaskier | 720p bober100 Скачать
2 | 0
Фильмы 2017 [DVDrip, WEB-DLRip, HDrip] (DUB, MVO) [ 1.45 GB ] Няня / The Babysitter | Jaskier | WEBRip bober100 Скачать
1 | 0

28-11-2019 20:33  


Отключить вcю реклaмy на сайте, в т.ч. и в плеере онлайн просмотра!

    Дорогой пользователь! Огромная просьба, поблагодарите релизера, оцените раздачу и оставьте свои комментарий, если Вы скачали Няня через торрент бесплатно!!
    Комментировать посты могут только пользователи прошедшие не сложную регистрацию
    Показать сообщения:    


    Няня через торрент
    Скачать бесплатно Няня
    Няня скачать торрент
    Няня смотреть онлайн
    Cкачать фильм Няня бесплатно
    Няня скачать торрент в хорошем качестве
    Няня смотреть онлайн бесплатно в хорошем качестве
    Вы не можете начинать темы
    Вы не можете отвечать на сообщения
    Вы не можете редактировать свои сообщения
    Вы не можете удалять свои сообщения
    Вы не можете голосовать в опросах
    Вы не можете прикреплять файлы к сообщениям
    Вы можете скачивать файлы
    Няня / The Babysitter [2017, ужасы, комедия, драма, UHD WEBRip 2160p] MVO [HDRezka] смотреть онлайн, скачать торрент picoco.icu