Достать ножи: Стеклянная луковица

MVO

Добыча

Дубляж

Уэнсдэй

1 сезон

Тор

Дубляж

13 клиническая

1 сезон

Жестокая ночь

MVO

Одни из нас

1 сезон

Deluxe

pack

Рекомендуем

30

Пиратка

ВАЖНО

ВАЖНО

Ghostwire

Пиратка

jed

RePack

nioh2

RePack

RDR2

RePack

NEED FOR SPEED™ PAYBACK

RePack

скачать торрент

Кинопоиск HD

Острые козырьки 6 сезон

6 сезон

FAR CRY 6

RePack

скачать торрент

Лицензия

скачать торрент

MVO

1

1 сезон

скачать торрент

1 сезон

скачать торрент

Лицензия

  

Человек-паук: Возвращение домой / Spider-Man: Homecoming (Джон Уоттс) [2017, фантастика, боевик, приключения, UHD BDRip 2160p] Дубляж - [Лицензия]

Человек-паук: Возвращение домой через торрент piratbit.org

Размер: 19.51 GB | Добавлен: 4 года 6 мес. назад | Торрент скачан:109 раз
Смотреть онлайн | Скачать | Поддержите нас   

22-07-2018 05:44 Человек-паук: Возвращение домой Скачать торрент  

Человек-паук: Возвращение домой / Spider-Man: Homecoming

Год выпуска: 2017
Страна: США
Жанр: фантастика, боевик, приключения
Продолжительность: 02:13:28
Перевод: Дублированное [Лицензия]
Субтитры: Русские (полные, форсированные), английские
Режиссер: Джон Уоттс
В ролях:

Том Холланд (Peter Parker / Spider-Man), Роберт Дауни мл. (Tony Stark / Iron Man), Майкл Китон (Adrian Toomes / Vulture), Мариса Томей (May Parker), Джон Фавро (Happy Hogan), Джейкоб Баталон (Ned), Зендея (Michelle), Лора Хэрриер (Liz), Тони Револори (Flash), Дональд Гловер (Aaron Davis), Гвинет Пэлтроу (Pepper Potts), Боким Вудбайн (Herman Schultz / Shocker #2)
Описание:
После исторической встречи с командой Мстителей Питер Паркер возвращается домой, стараясь зажить обычной жизнью под опекой своей тёти Мэй. Но теперь за Питером приглядывает ещё кое-что... Тони Старк видел Человека-Паука в деле и должен стать его наставником. Когда новый злодей Стервятник угрожает уничтожить всё, что дорого Питеру, приходит время доказать всем, что такое настоящий супергерой.
Рейтинг:

MPAA: PG-13 - Детям до 13 лет просмотр не желателен
Качество: UHD BDRip 2160p
Формат: MKV
Видео: HEVC, HDR, 3840x1604 (2.40:1), 23.976 fps, 14.8 Mb/s (0.100 bit/pixel)
Аудио #1: AC-3, 48.0 kHz, 6 ch, 448 kb/s, CBR (Russian)
Аудио #2: TrueHD TrueHD+Atmos / TrueHD, / 48.0 kHz, Object Based / 8 ch, 4 945 kb/s, VBR (English)
Аудио #3: AC-3, 48.0 kHz, 6 ch, 640 kb/s, CBR (English)
Навигация по главам: есть
Блокбастер «Человек-паук: Возвращение домой» станет первым сольным фильмом о культовом супергерое, созданным в рамках Кинематографической вселенной Марвел. Режиссером ленты, уделяющей значительную долю внимания школьной жизни Питера Паркера, выступил Джон Уоттс, а над сценарием трудились Джон Фрэнсис Дейли и Джонатан М. Голдштейн – авторы ребута комедии «Каникулы». Это второй фильм с участием Тома Холлэнда в образе Человека-паука после ленты «Первый мститель: Противостояние» (2016).
На роль Питера Паркера также претендовали Эйса Баттефрилд, Нэт Вулф, Чендлер Риггз, Лиам Джеймс и Тимоти Чаламет.
Звезда сериала «Во все тяжкие» (2008) Брайан Крэнстон выражал заинтересованность в роли Нормана Озборна / Зелёного Гоблина. Также в число желающих сыграть легендарного злодея вошли Кайл МакЛоклен, Мэттью МакКонахи, Киллиан Мёрфи и Джон Хэмм, однако центральным антагонистом фильма в итоге сделали Эдриана Тумса / Стервятника.
По словам главы Marvel Studios Кевина Файги, студия планирует показывать лишь тех суперзлодеев, которые не появлялись в предыдущих картинах о Человеке-пауке.
Дж. К. Симмонс был не против вернуться к образу Джей Джоны Джеймсона (которого он сыграл в трилогии Сэма Рэйми), однако этому помешало его участие в блокбастере «Лига Справедливости» (2017), где актер появится в роли комиссара Джеймса Гордона.
По сюжету «Возвращения домой» Питеру Паркеру всего 15 лет. Таким образом, Том Холлэнд на 4 года старше своего персонажа.
Мартин Старр и Кеннет Чой ранее уже снимались в фильмах киновселенной Марвел: «Невероятном Халке» (2008) и «Первом мстителе» (2011) соответственно.
В декабре 2016-го было официально объявлено, что лента получит сиквел. Релиз второй части намечен на июль 2019-го.
19-летний Том Холлэнд стал самым молодым актером, сыгравшим Человека-паука. Предыдущим исполнителям, Тоби Магуайру и Эндрю Гарфилду, на момент получения роли супергероя было 25 и 26 лет соответственно.
Это 16-я картина из киновселенной Марвел и первая, созданная в сотрудничестве с Sony. При этом проект стал первым фильмом о Человеке-пауке, спецэффекты для которого создала компания, не связанная с Sony – Industrial Light & Magic.
Майкл Китон, воплощающий образ Стервятника, ранее играл в «Бёрдмэне» (2014) вместе с Эммой Стоун и Эдвардом Нортоном. При этом Эмма Стоун снималась в роли Гвен Стэйси, возлюбленной Питера Паркера, в предыдущих фильмах про Человека-паука: «Новый Человек-паук» (2012) и «Новый Человек-паук: Высокое напряжение» (2014), а Эдвард Нортон сыграл Брюса Бэннера / Халка в «Невероятном Халке» (2008), также являющимся частью Кинематографической вселенной Marvel.
Согласно условиям сделки с Sony, Кевин Файги за свою работу в качестве исполнительного продюсера проекта не получит ни доллара.
Винсент Д’Онофрио, исполняющий роль злодея Уилсона Фиска / Кингпина в сериале «Сорвиголова» (2015) из киновселенной Марвел сообщал о желании появиться в образе своего персонажа в этом фильме.
Общее
Уникальный идентификатор : 71489399697642805107430236974034905035 (0x35C85B88F270682FC4EE33F0C482E7CB)
Полное имя : Spider-Man.Homecoming.2017.2160p.BDRip.x265.10bit.HDR.IVA(RUS.ENG).ExKinoRay.mkv
Формат : Matroska
Версия формата : Version 4 / Version 2
Размер файла : 19,5 Гбайт
Продолжительность : 2 ч. 13 м.
Режим общего битрейта : Переменный
Общий поток : 20,9 Мбит/сек
Название фильма : Человек-паук: Возвращение домой / Spider-Man: Homecoming ( 2017 ) UHD BDRip | HDR, 4K | IVA(RUS.ENG) | ExKinoRay
Дата кодирования : UTC 2018-07-16 14:14:48
Программа кодирования : mkvmerge v25.0.0 ('Prog Noir') 64-bit
Библиотека кодирования : libebml v1.3.6 + libmatroska v1.4.9
Обложка : Yes
Attachments : cover

Видео
Идентификатор : 1
Формат : HEVC
Формат/Информация : High Efficiency Video Coding
Коммерческое название : HDR10
Профиль формата : Main 10@L5.1@High
Идентификатор кодека : V_MPEGH/ISO/HEVC
Продолжительность : 2 ч. 13 м.
Битрейт : 14,8 Мбит/сек
Ширина : 3840 пикселей
Высота : 1604 пикселя
Соотношение сторон : 2,40:1
Режим частоты кадров : Постоянный
Частота кадров : 23,976 (24000/1001) кадра/сек
Цветовое пространство : YUV
Субдискретизация насыщенности : 4:2:0 (Type 2)
Битовая глубина : 10 бит
Бит/(Пиксели*Кадры) : 0.100
Размер потока : 13,8 Гбайт (71%)
Заголовок : Spider-Man.Homecoming.2017.2160p.BDRip.x265.10bit.HDR
Библиотека кодирования : x265 2.5+38-8a121d8cc134:[Windows][GCC 6.2.1][64 bit] 10bit
Настройки программы : cpuid=1173503 / frame-threads=4 / numa-pools=16 / wpp / no-pmode / no-pme / no-psnr / no-ssim / log-level=2 / input-csp=1 / input-res=3840x1604 / interlace=0 / total-frames=192001 / level-idc=51 / high-tier=1 / uhd-bd=0 / ref=4 / no-allow-non-conformance / repeat-headers / annexb / aud / hrd / info / hash=0 / no-temporal-layers / no-open-gop / min-keyint=1 / keyint=24 / bframes=4 / b-adapt=2 / b-pyramid / bframe-bias=0 / rc-lookahead=25 / lookahead-slices=4 / scenecut=40 / no-intra-refresh / ctu=64 / min-cu-size=8 / rect / no-amp / max-tu-size=32 / tu-inter-depth=1 / tu-intra-depth=1 / limit-tu=0 / rdoq-level=2 / dynamic-rd=0.00 / no-ssim-rd / signhide / no-tskip / nr-intra=0 / nr-inter=0 / no-constrained-intra / no-strong-intra-smoothing / max-merge=3 / limit-refs=3 / limit-modes / me=3 / subme=3 / merange=57 / temporal-mvp / weightp / no-weightb / no-analyze-src-pics / deblock=-3:-3 / no-sao / no-sao-non-deblock / rd=4 / no-early-skip / rskip / no-fast-intra / no-tskip-fast / no-cu-lossless / no-b-intra / no-splitrd-skip / rdpenalty=0 / psy-rd=2.00 / psy-rdoq=1.00 / no-rd-refine / analysis-reuse-mode=0 / no-lossless / cbqpoffs=0 / crqpoffs=0 / rc=crf / crf=17.0 / qcomp=0.60 / qpstep=4 / stats-write=0 / stats-read=0 / vbv-maxrate=160000 / vbv-bufsize=160000 / vbv-init=0.9 / crf-max=0.0 / crf-min=0.0 / ipratio=1.40 / pbratio=1.30 / aq-mode=1 / aq-strength=1.00 / cutree / zone-count=0 / no-strict-cbr / qg-size=32 / no-rc-grain / qpmax=69 / qpmin=0 / no-const-vbv / sar=1 / overscan=0 / videoformat=5 / range=0 / colorprim=9 / transfer=16 / colormatrix=9 / chromaloc=1 / chromaloc-top=2 / chromaloc-bottom=2 / display-window=0 / master-display=G(13250,34500)B(7500,3000)R(34000,16000)WP(15635,16450)L(40000000,50) / max-cll=4332,992 / min-luma=0 / max-luma=1023 / log2-max-poc-lsb=8 / vui-timing-info / vui-hrd-info / slices=1 / opt-qp-pps / opt-ref-list-length-pps / no-multi-pass-opt-rps / scenecut-bias=0.05 / no-opt-cu-delta-qp / no-aq-motion / hdr / hdr-opt / no-dhdr10-opt / analysis-reuse-level=5 / scale-factor=0 / refine-intra=0 / refine-inter=0 / refine-mv=0 / no-limit-sao / ctu-info=0 / no-lowpass-dct
Язык : English
Default : Да
Forced : Нет
Цветовой диапазон : Limited
Основные цвета : BT.2020
Характеристики трансфера : PQ
Коэффициенты матрицы : BT.2020 non-constant
MasteringDisplay_ColorPrimaries : Display P3
MasteringDisplay_Luminance : min: 0.0050 cd/m2, max: 4000 cd/m2
MaxCLL : 4332 cd/m2
MaxFALL : 992 cd/m2

Аудио #1
Идентификатор : 2
Формат : AC-3
Формат/Информация : Audio Coding 3
Идентификатор кодека : A_AC3
Продолжительность : 2 ч. 13 м.
Вид битрейта : Постоянный
Битрейт : 448 Кбит/сек
Каналы : 6 каналов
Расположение каналов : Front: L C R, Side: L R, LFE
Частота : 48,0 КГц
Частота кадров : 31,250 кадров/сек (1536 SPF)
Битовая глубина : 16 бит
Метод сжатия : С потерями
Размер потока : 428 Мбайт (2%)
Заголовок : | Дублированный |
Язык : Russian
ServiceKind/String : Complete Main
Default : Да
Forced : Нет

Аудио #2
Идентификатор : 3
Формат : TrueHD
Профиль формата : TrueHD+Atmos / TrueHD
Идентификатор кодека : A_TRUEHD
Продолжительность : 2 ч. 13 м.
Вид битрейта : Переменный
Битрейт : 4945 Кбит/сек
Максимальный битрейт : 8175 Кбит/сек
Каналы : Object Based / 8 каналов
Расположение каналов : Object Based / Front: L C R, Side: L R, Back: L R, LFE
Частота : / 48,0 КГц
Частота кадров : 1200,000 кадров/сек (40 SPF)
Метод сжатия : Без потерь
Размер потока : 4,61 Гбайт (24%)
Заголовок : | Original |
Язык : English
Default : Нет
Forced : Нет

Аудио #3
Идентификатор : 4
Формат : AC-3
Формат/Информация : Audio Coding 3
Идентификатор кодека : A_AC3
Продолжительность : 2 ч. 13 м.
Вид битрейта : Постоянный
Битрейт : 640 Кбит/сек
Каналы : 6 каналов
Расположение каналов : Front: L C R, Side: L R, LFE
Частота : 48,0 КГц
Частота кадров : 31,250 кадров/сек (1536 SPF)
Битовая глубина : 16 бит
Метод сжатия : С потерями
Размер потока : 611 Мбайт (3%)
Заголовок : | Original, AC3 Core |
Язык : English
ServiceKind/String : Complete Main
Default : Нет
Forced : Нет

Текст #1
Идентификатор : 5
Формат : UTF-8
Идентификатор кодека : S_TEXT/UTF8
Идентификатор кодека/Информация : UTF-8 Plain Text
Продолжительность : 2 ч. 9 м.
Битрейт : 0 бит/сек
ElementCount : 17
Размер потока : 825 байт (0%)
Заголовок : Forced [iTunes]
Язык : Russian
Default : Да
Forced : Да

Текст #2
Идентификатор : 6
Формат : UTF-8
Идентификатор кодека : S_TEXT/UTF8
Идентификатор кодека/Информация : UTF-8 Plain Text
Продолжительность : 2 ч. 12 м.
Битрейт : 104 бит/сек
ElementCount : 1825
Размер потока : 102 Кбайт (0%)
Заголовок : Full [iTunes]
Язык : Russian
Default : Нет
Forced : Нет

Текст #3
Идентификатор : 7
Формат : UTF-8
Идентификатор кодека : S_TEXT/UTF8
Идентификатор кодека/Информация : UTF-8 Plain Text
Продолжительность : 5 с. 130 мс.
Битрейт : 79 бит/сек
ElementCount : 2
Размер потока : 51,0 байт (0%)
Заголовок : Forced [iTunes]
Язык : English
Default : Нет
Forced : Да

Текст #4
Идентификатор : 8
Формат : UTF-8
Идентификатор кодека : S_TEXT/UTF8
Идентификатор кодека/Информация : UTF-8 Plain Text
Продолжительность : 2 ч. 12 м.
Битрейт : 64 бит/сек
ElementCount : 1790
Размер потока : 62,3 Кбайт (0%)
Заголовок : Full [iTunes]
Язык : English
Default : Нет
Forced : Нет

Меню
00:00:00.000 : en:00:00:00.000
00:05:34.084 : en:00:05:34.084
00:14:24.280 : en:00:14:24.280
00:20:51.000 : en:00:20:51.000
00:26:19.244 : en:00:26:19.244
00:36:27.977 : en:00:36:27.977
00:46:03.928 : en:00:46:03.928
00:54:40.194 : en:00:54:40.194
01:05:10.281 : en:01:05:10.281
01:12:03.277 : en:01:12:03.277
01:20:20.190 : en:01:20:20.190
01:29:41.543 : en:01:29:41.543
01:36:56.894 : en:01:36:56.894
01:44:44.153 : en:01:44:44.153
01:50:31.250 : en:01:50:31.250
01:57:53.566 : en:01:57:53.566



Скачать Человек-паук: Возвращение домой через торрент https://d.radikal.ru/d37/1807/76/af8956783a8c.png Скачать, смотреть онлайн Человек-паук: Возвращение домой бесплантно в хорошем качестве Описание: После исторической встречи с командой Мстителей Питер Паркер возвращается домой, стараясь зажить обычной жизнью под опекой своей ... 10 10 4
Info! Золотая раздача, скачанное не засчитывается.
Торрент: Зарегистрирован [2018-07-22 05:44] · скачан: 109 раз
Статус: √ проверено
Размер: 19.51 GB
Как cкачать? Как скачать Человек-паук: Возвращение домой через торрент | UTorrent

% Раздел Тема Автор DL S | L
Ultra HD (UHD: 2K, 4K, 8K) [ 43.9 GB ] Человек-паук: Возвращение домой / Spider-Man: Homecoming | Лицензия | 2160p sheker187 Скачать
1 | 0
Фильмы (HD 720p, 1080p) (48-60 fps) [ 4.08 GB ] Человек-паук: Возвращение домой / Spider-Man: Homecoming | Дубляж | 720p / 60 FPS slaventi-69 Скачать
1 | 0
Ultra HD (UHD: 2K, 4K, 8K) [ 56.23 GB ] Человек-паук: Возвращение домой / Spider-Man: Homecoming | Лицензия | 2160p sheker187 Скачать
1 | 0
Фильмы [HD 720p, 1080p] (Хороший звук DUB, MVO) [ 7.23 GB ] Человек-паук: Возвращение домой / Spider-Man: Homecoming | Лицензия | 1080p, HEVC (10bit Мичман37 Скачать
1 | 0
Фильмы 2017 [DVDrip, WEB-DLRip, HDrip] (DUB, MVO) [ 2.83 GB ] Человек-паук: Возвращение домой / Spider-Man: Homecoming | Лицензия | BDRip-AVC, Дубляж Лицензия, AVO morfyi Скачать
1 | 0
Фильмы (Blu-ray, BD-Remux, HDDVD) [ 27.97 GB ] Человек-паук: Возвращение домой / Spider-Man: Homecoming | Лицензия | BD Remux 1080p bober100 Скачать
1 | 0
Ultra HD (UHD: 2K, 4K, 8K) [ 49.23 GB ] Человек-паук: Возвращение домой / Spider-Man: Homecoming | Лицензия | 2160p bober100 Скачать
1 | 0

28-11-2019 20:33  


Отключить вcю реклaмy на сайте, в т.ч. и в плеере онлайн просмотра!

    Дорогой пользователь! Огромная просьба, поблагодарите релизера, оцените раздачу и оставьте свои комментарий, если Вы скачали Человек-паук: Возвращение домой через торрент бесплатно!!
    Комментировать посты могут только пользователи прошедшие не сложную регистрацию
    Показать сообщения:    


    Человек-паук: Возвращение домой через торрент
    Скачать бесплатно Человек-паук: Возвращение домой
    Человек-паук: Возвращение домой скачать торрент
    Человек-паук: Возвращение домой смотреть онлайн
    Cкачать фильм Человек-паук: Возвращение домой бесплатно
    Человек-паук: Возвращение домой скачать торрент в хорошем качестве
    Человек-паук: Возвращение домой смотреть онлайн бесплатно в хорошем качестве
    Вы не можете начинать темы
    Вы не можете отвечать на сообщения
    Вы не можете редактировать свои сообщения
    Вы не можете удалять свои сообщения
    Вы не можете голосовать в опросах
    Вы не можете прикреплять файлы к сообщениям
    Вы можете скачивать файлы
    Человек-паук: Возвращение домой / Spider-Man: Homecoming [2017, фантастика, боевик, приключения, UHD BDRip 2160p] Дубляж - [Лицензия] смотреть онлайн, скачать торрент picoco.icu