Достать ножи: Стеклянная луковица

MVO

Добыча

Дубляж

Уэнсдэй

1 сезон

Тор

Дубляж

13 клиническая

1 сезон

Жестокая ночь

MVO

Одни из нас

1 сезон

Deluxe

pack

Рекомендуем

30

Пиратка

ВАЖНО

ВАЖНО

Ghostwire

Пиратка

jed

RePack

nioh2

RePack

RDR2

RePack

NEED FOR SPEED™ PAYBACK

RePack

скачать торрент

Кинопоиск HD

Острые козырьки 6 сезон

6 сезон

FAR CRY 6

RePack

скачать торрент

Лицензия

скачать торрент

MVO

1

1 сезон

скачать торрент

1 сезон

скачать торрент

Лицензия

  

Черепашки-ниндзя / Teenage Mutant Ninja Turtles (Джонатан Либесман) [2014 г., Фантастика, фэнтези, боевик, комедия, приключения, UHD BDRip 2160p] Дубляж + AVO [А. Гаврилов]

Черепашки-ниндзя через торрент piratbit.org

Размер: 28.26 GB | Добавлен: 4 года 6 мес. назад | Торрент скачан:5 раз
Смотреть онлайн | Скачать | Поддержите нас   

22-07-2018 06:02 Черепашки-ниндзя Скачать торрент  

Черепашки-ниндзя / Teenage Mutant Ninja Turtles«Лидер. Мозги. Отношение. И Мики»
Год выпуска: 2014
Страна: США
Жанр: Фантастика, фэнтези, боевик, комедия, приключения
Продолжительность: 01:41:17
Перевод: Дублированный, авторский
Субтитры: Русские, английские, французские, испанские, португальские, итальянские, немецкие, нидерландские, шведские, норвежские, датские, финские, исландские, чешские, румынские, словацкие, греческие, арабские, китайские, корейские, хинди, малайские
Режиссер: Джонатан Либесман
В ролях:

Меган Фокс (April O'Neil), Уилл Арнетт (Vern Fenwick), Уильям Фихтнер (Eric Sacks), Алан Ричсон (Raphael), Ноэль Фишер (Michelangelo), Пит Пложек (Leonardo), Джонни Ноксвил (Leonardo, озвучка), Джереми Ховард (Donatello), Дэнни Вудберн (Splinter), Тони Шэлуб (Splinter, озвучка), Тохору Масамуне (Shredder), Вупи Голдберг (Bernadette Thompson)
Описание:
Будучи маленькой, Эйприл часто бывала в лаборатории отца, генного инженера, который работал над проектом создания суперсолдат. В результате пожара отец девочки погиб, а все его разработки были безвозвратно утеряны... Все, кроме четырёх подопытных черепашек и крысы. Их Эйприл спустила в канализацию, в надежде, что те как-нибудь смогут выжить. Спустя четырнадцать лет Эйприл вновь встречается с ними. Вот только встреча омрачена событиями, о которых узнаёт юная репортёрша и её друг-оператор: Шреддер, глава клана Фут, решил заразить весь Нью-Йорк смертельным вирусом, а позднее заработать шантажом целое состояние. И теперь всё в руках, то есть лапах, молодых черепашек-ниндзя, неугомонной Эприл О'Нил и её друга Вернона.

Качество: UHD BDRip 2160p
Контейнер: MKV
Видео: HEVC, HDR, 32.5 Мбит/с, 3840x1600, 23.976 кадр/с
Аудио #1: AC-3, 48.0 kHz, 6 ch, 448 kb/s, CBR (Russian) | Дублированный |
Аудио #2: AC-3 48.0 kHz, 6 ch, 448 kb/s (Russian) | AVO, А. Гаврилов |
Аудио #3: TrueHD+Atmos, 48.0 kHz, 8 ch, 5 544 kb/s (English) | Original |
Аудио #4: AC-3, 48.0 kHz, 6 ch, 640 kb/s, CBR (English) | Original |
Навигация по главам: Есть
• Изначально название фильма было Ninja Turtles. Teenage Mutant добавили, чтобы порадовать фанатов, когда они стали негативно отзываться о первоначальной версии названия.
• Джейн Леви, Анна Кендрик и Элизабет Олсен проходили прослушивание на роль Эйприл О`Нил.
• Бретт Рэтнер рассматривался на должность режиссера проекта.
• Создатели фильма отметили, что в процессе работы над проектом их источниками вдохновения для экшн-сцен были такие фильмы, как «Кулак легенды» (1994) и «Рейд» (2011).
• На роль Сплинтера был взят актер Дэнни Вудберн, чей рост составляет 122 сантиметра, что соответствует оригинальным комиксам. Вудберн очень расстроился, когда узнал, что он будет только исполнять движения Сплинтера, которые затем будут перенесены в фильм при помощи технологии захвата движения. Голосом же Сплинтера стал Тони Шэлуб.
• Кастинг на роли в клан «Фут» был проведен, когда празднование 25-летия «Черепашек-ниндзя» проходило в Лос-Анджелесе. Роли достались обычным людям с улицы.
• Фильм вышел к 30-летию франшизы «Черепашки-ниндзя».
• Эйприл О’Нилл носит желтую куртку в фильме. Это отсылка к оригинальному сериалу «Черепашки-мутанты ниндзя» (1987-1996), где у Эйприл был желтый комбинезон.
• Во время съемок, чтобы скрыть настоящее название, фильму присвоили рабочее название Foursquare («Квадрат»).
• Изначально создатели хотели, чтобы у Микеланджело на шее была золотая цепь, но эту идею раскритиковали как стереотипную отсылку к чернокожим людям. В итоге вместо золотой цепи появилось ожерелье из морских ракушек, чтобы подчеркнуть любовь Микеланджело к серфингу и скейтбордингу.
• Это первый фильм о черепашках-ниндзя, выпущенный в 3D.
• Персонаж Бернадетт Томпсон (босс Эйприл) основан на Бёрне Томпсоне, боссе Эйприл из оригинального сериала «Черепашки-мутанты ниндзя» (1987-1996).
• Сценарист Кевин Истмэн, один из создателей черепашек-ниндзя, снялся в эпизодической роли доктора.
• Из всех актеров, которые озвучивали мультсериалы о черепашках-ниндзя в 1990-х, Робби Рист (Микеланджело) был единственным, кто обвинил Майкла Бэя в том, что он изнасиловал сагу о черепашках-ниндзя их инопланетным происхождением. Брайан Точи (озвучивал Леонардо), Кори Фельдман (Донателло) и Джудит Хоаг (Эйприл О`Нил) одобрили развитие сюжета в этом направлении. Позже Рист взял свои слова назад.
• В оригинальном сценарии присутствовали мутанты-головорезы Бибоп и Рокстеди. Но в итоге было решено, что эти персонажи появятся в сиквеле.
Ошибки в фильме:
• В момент когда Эйприл звонит Вернону (58:55), тот берет трубку и улыбаясь говорит «Эйприл!». На самом деле он не мог знать, что это она, потому как Эйприл звонит с уличного таксофона.
• Когда черепашки назначают встречу, Эйприл приходит в черной майке. Однако позже в канализации на ней серая майка с рисунком.
• Когда черепашки-ниндзя сбежали из особняка вместе с Эйприл и ее оператором, они катились по канализационным трубам прямо по воде. Когда же компания приземлилась, одежда и волосы у Эйприл и оператора были совершенно сухими.
• Когда Эйприл впервые рассказывает руководству о загадочном «герое», помешавшем клану, в кадрах, где ее показывают со спины, цвет ее волос — рыжий, хотя в остальных ракурсах волосы у Эйприл черные.
Общее
Уникальный идентификатор : 49682841156952655448241385691513336758 (0x25609130C8CEDF28B26CB4B7CEE3B3B6)
Полное имя : Teenage.Mutant.Ninja.Turtles.2014.2160p.UHD.BDRip.X265.mkv
Формат : Matroska
Версия формата : Version 4 / Version 2
Размер файла : 28,3 Гбайт
Продолжительность : 1 ч. 41 м.
Режим общего битрейта : Переменный
Общий поток : 39,9 Мбит/сек
Дата кодирования : UTC 2018-07-21 16:53:30
Программа кодирования : mkvmerge v25.0.0 ('Prog Noir') 64-bit
Библиотека кодирования : libebml v1.3.6 + libmatroska v1.4.9

Видео
Идентификатор : 1
Формат : HEVC
Формат/Информация : High Efficiency Video Coding
Коммерческое название : HDR10
Профиль формата : Main 10@L5.1@High
Идентификатор кодека : V_MPEGH/ISO/HEVC
Продолжительность : 1 ч. 41 м.
Битрейт : 32,5 Мбит/сек
Ширина : 3840 пикселей
Высота : 1600 пикселей
Соотношение сторон : 2,40:1
Режим частоты кадров : Постоянный
Частота кадров : 23,976 (24000/1001) кадра/сек
Цветовое пространство : YUV
Субдискретизация насыщенности : 4:2:0 (Type 2)
Битовая глубина : 10 бит
Бит/(Пиксели*Кадры) : 0.221
Размер потока : 23,0 Гбайт (81%)
Библиотека кодирования : x265 2.8+10-703eade86b53:[Windows][GCC 8.1.0][64 bit] 10bit
Настройки программы : cpuid=1176575 / frame-threads=5 / numa-pools=32 / wpp / no-pmode / no-pme / no-psnr / no-ssim / log-level=2 / input-csp=1 / input-res=3840x1600 / interlace=0 / total-frames=145726 / level-idc=51 / high-tier=1 / uhd-bd=0 / ref=4 / no-allow-non-conformance / repeat-headers / annexb / aud / hrd / info / hash=0 / no-temporal-layers / no-open-gop / min-keyint=24 / keyint=240 / gop-lookahead=0 / bframes=4 / b-adapt=2 / b-pyramid / bframe-bias=0 / rc-lookahead=25 / lookahead-slices=4 / scenecut=40 / radl=0 / no-intra-refresh / ctu=64 / min-cu-size=8 / rect / no-amp / max-tu-size=32 / tu-inter-depth=1 / tu-intra-depth=1 / limit-tu=0 / rdoq-level=2 / dynamic-rd=0.00 / no-ssim-rd / signhide / no-tskip / nr-intra=0 / nr-inter=0 / no-constrained-intra / no-strong-intra-smoothing / max-merge=3 / limit-refs=3 / limit-modes / me=3 / subme=3 / merange=57 / temporal-mvp / weightp / no-weightb / no-analyze-src-pics / deblock=-3:-3 / no-sao / no-sao-non-deblock / rd=4 / no-early-skip / rskip / no-fast-intra / no-tskip-fast / no-cu-lossless / no-b-intra / no-splitrd-skip / rdpenalty=0 / psy-rd=2.00 / psy-rdoq=1.00 / no-rd-refine / no-lossless / cbqpoffs=0 / crqpoffs=0 / rc=crf / crf=17.0 / qcomp=0.60 / qpstep=4 / stats-write=0 / stats-read=0 / vbv-maxrate=160000 / vbv-bufsize=160000 / vbv-init=0.9 / crf-max=0.0 / crf-min=0.0 / ipratio=1.40 / pbratio=1.30 / aq-mode=1 / aq-strength=1.00 / cutree / zone-count=0 / no-strict-cbr / qg-size=32 / no-rc-grain / qpmax=69 / qpmin=0 / no-const-vbv / sar=1 / overscan=0 / videoformat=5 / range=0 / colorprim=9 / transfer=16 / colormatrix=9 / chromaloc=1 / chromaloc-top=2 / chromaloc-bottom=2 / display-window=0 / master-display=G(13250,34500)B(7500,3000)R(34000,16000)WP(15635,16450)L(10000000,1) / max-cll=0,0 / min-luma=0 / max-luma=1023 / log2-max-poc-lsb=8 / vui-timing-info / vui-hrd-info / slices=1 / no-opt-qp-pps / no-opt-ref-list-length-pps / no-multi-pass-opt-rps / scenecut-bias=0.05 / no-opt-cu-delta-qp / no-aq-motion / hdr / hdr-opt / no-dhdr10-opt / no-idr-recovery-sei / analysis-reuse-level=5 / scale-factor=0 / refine-intra=0 / refine-inter=0 / refine-mv=0 / no-limit-sao / ctu-info=0 / no-lowpass-dct / refine-mv-type=0 / copy-pic=1 / max-ausize-factor=1.0 / no-dynamic-refine / no-single-sei
Default : Да
Forced : Нет
Цветовой диапазон : Limited
Основные цвета : BT.2020
Характеристики трансфера : PQ
Коэффициенты матрицы : BT.2020 non-constant
MasteringDisplay_ColorPrimaries : BT.709
MasteringDisplay_Luminance : min: 0.0001 cd/m2, max: 1000 cd/m2

Аудио #1
Идентификатор : 2
Формат : AC-3
Формат/Информация : Audio Coding 3
Идентификатор кодека : A_AC3
Продолжительность : 1 ч. 41 м.
Вид битрейта : Постоянный
Битрейт : 448 Кбит/сек
Каналы : 6 каналов
Расположение каналов : Front: L C R, Side: L R, LFE
Частота : 48,0 КГц
Частота кадров : 31,250 кадров/сек (1536 SPF)
Битовая глубина : 16 бит
Метод сжатия : С потерями
Размер потока : 325 Мбайт (1%)
Заголовок : Дубляж
Язык : Russian
ServiceKind/String : Complete Main
Default : Нет
Forced : Нет

Аудио #2
Идентификатор : 3
Формат : AC-3
Формат/Информация : Audio Coding 3
Идентификатор кодека : A_AC3
Продолжительность : 1 ч. 41 м.
Вид битрейта : Постоянный
Битрейт : 448 Кбит/сек
Каналы : 6 каналов
Расположение каналов : Front: L C R, Side: L R, LFE
Частота : 48,0 КГц
Частота кадров : 31,250 кадров/сек (1536 SPF)
Битовая глубина : 16 бит
Метод сжатия : С потерями
Размер потока : 325 Мбайт (1%)
Заголовок : AVO Gavrilov
Язык : Russian
ServiceKind/String : Complete Main
Default : Нет
Forced : Нет

Аудио #3
Идентификатор : 4
Формат : TrueHD
Профиль формата : TrueHD+Atmos / TrueHD
Идентификатор кодека : A_TRUEHD
Продолжительность : 1 ч. 41 м.
Вид битрейта : Переменный
Битрейт : 5544 Кбит/сек
Максимальный битрейт : 8853 Кбит/сек
Каналы : Object Based / 8 каналов
Расположение каналов : Object Based / Front: L C R, Side: L R, Back: L R, LFE
Частота : / 48,0 КГц
Частота кадров : 1200,000 кадров/сек (40 SPF)
Метод сжатия : Без потерь
Размер потока : 3,92 Гбайт (14%)
Заголовок : Atmos 7.1
Язык : English
Default : Да
Forced : Нет

Аудио #4
Идентификатор : 5
Формат : AC-3
Формат/Информация : Audio Coding 3
Идентификатор кодека : A_AC3
Продолжительность : 1 ч. 41 м.
Вид битрейта : Постоянный
Битрейт : 640 Кбит/сек
Каналы : 6 каналов
Расположение каналов : Front: L C R, Side: L R, LFE
Частота : 48,0 КГц
Частота кадров : 31,250 кадров/сек (1536 SPF)
Битовая глубина : 16 бит
Метод сжатия : С потерями
Размер потока : 464 Мбайт (2%)
Заголовок : AC-3 5.1
Язык : English
ServiceKind/String : Complete Main
Default : Нет
Forced : Нет

Текст #1
Идентификатор : 6
Формат : PGS
Режим смешивания : zlib
Идентификатор кодека : S_HDMV/PGS
Идентификатор кодека/Информация : Picture based subtitle format used on BDs/HD-DVDs
Продолжительность : 1 ч. 33 м.
Битрейт : 46,6 Кбит/сек
ElementCount : 3438
Размер потока : 31,1 Мбайт (0%)
Заголовок : SDH
Язык : English
Default : Нет
Forced : Нет

Текст #2
Идентификатор : 7
Формат : PGS
Режим смешивания : zlib
Идентификатор кодека : S_HDMV/PGS
Идентификатор кодека/Информация : Picture based subtitle format used on BDs/HD-DVDs
Продолжительность : 1 ч. 40 м.
Битрейт : 26,8 Кбит/сек
ElementCount : 2458
Размер потока : 19,2 Мбайт (0%)
Заголовок : EU
Язык : French
Default : Нет
Forced : Нет

Текст #3
Идентификатор : 8
Формат : PGS
Режим смешивания : zlib
Идентификатор кодека : S_HDMV/PGS
Идентификатор кодека/Информация : Picture based subtitle format used on BDs/HD-DVDs
Продолжительность : 1 ч. 34 м.
Битрейт : 35,7 Кбит/сек
ElementCount : 2912
Размер потока : 24,2 Мбайт (0%)
Заголовок : CA
Язык : French
Default : Нет
Forced : Нет

Текст #4
Идентификатор : 9
Формат : PGS
Режим смешивания : zlib
Идентификатор кодека : S_HDMV/PGS
Идентификатор кодека/Информация : Picture based subtitle format used on BDs/HD-DVDs
Продолжительность : 1 ч. 40 м.
Битрейт : 32,9 Кбит/сек
ElementCount : 2356
Размер потока : 23,6 Мбайт (0%)
Заголовок : EU
Язык : Spanish
Default : Нет
Forced : Нет

Текст #5
Идентификатор : 10
Формат : PGS
Режим смешивания : zlib
Идентификатор кодека : S_HDMV/PGS
Идентификатор кодека/Информация : Picture based subtitle format used on BDs/HD-DVDs
Продолжительность : 1 ч. 34 м.
Битрейт : 31,2 Кбит/сек
ElementCount : 2252
Размер потока : 21,2 Мбайт (0%)
Заголовок : LA
Язык : Spanish
Default : Нет
Forced : Нет

Текст #6
Идентификатор : 11
Формат : PGS
Режим смешивания : zlib
Идентификатор кодека : S_HDMV/PGS
Идентификатор кодека/Информация : Picture based subtitle format used on BDs/HD-DVDs
Продолжительность : 1 ч. 40 м.
Битрейт : 32,4 Кбит/сек
ElementCount : 2328
Размер потока : 23,2 Мбайт (0%)
Заголовок : EU
Язык : Portuguese
Default : Нет
Forced : Нет

Текст #7
Идентификатор : 12
Формат : PGS
Режим смешивания : zlib
Идентификатор кодека : S_HDMV/PGS
Идентификатор кодека/Информация : Picture based subtitle format used on BDs/HD-DVDs
Продолжительность : 1 ч. 34 м.
Битрейт : 30,2 Кбит/сек
ElementCount : 2270
Размер потока : 20,5 Мбайт (0%)
Заголовок : BRA
Язык : Portuguese
Default : Нет
Forced : Нет

Текст #8
Идентификатор : 13
Формат : PGS
Режим смешивания : zlib
Идентификатор кодека : S_HDMV/PGS
Идентификатор кодека/Информация : Picture based subtitle format used on BDs/HD-DVDs
Продолжительность : 1 ч. 40 м.
Битрейт : 32,5 Кбит/сек
ElementCount : 2244
Размер потока : 23,3 Мбайт (0%)
Язык : Italian
Default : Нет
Forced : Нет

Текст #9
Идентификатор : 14
Формат : PGS
Режим смешивания : zlib
Идентификатор кодека : S_HDMV/PGS
Идентификатор кодека/Информация : Picture based subtitle format used on BDs/HD-DVDs
Продолжительность : 1 ч. 40 м.
Битрейт : 36,9 Кбит/сек
ElementCount : 2702
Размер потока : 26,5 Мбайт (0%)
Язык : German
Default : Нет
Forced : Нет

Текст #10
Идентификатор : 15
Формат : PGS
Режим смешивания : zlib
Идентификатор кодека : S_HDMV/PGS
Идентификатор кодека/Информация : Picture based subtitle format used on BDs/HD-DVDs
Продолжительность : 1 ч. 40 м.
Битрейт : 27,5 Кбит/сек
ElementCount : 1912
Размер потока : 19,7 Мбайт (0%)
Язык : Dutch
Default : Нет
Forced : Нет

Текст #11
Идентификатор : 16
Формат : PGS
Режим смешивания : zlib
Идентификатор кодека : S_HDMV/PGS
Идентификатор кодека/Информация : Picture based subtitle format used on BDs/HD-DVDs
Продолжительность : 1 ч. 40 м.
Битрейт : 30,4 Кбит/сек
ElementCount : 2268
Размер потока : 21,8 Мбайт (0%)
Язык : Swedish
Default : Нет
Forced : Нет

Текст #12
Идентификатор : 17
Формат : PGS
Режим смешивания : zlib
Идентификатор кодека : S_HDMV/PGS
Идентификатор кодека/Информация : Picture based subtitle format used on BDs/HD-DVDs
Продолжительность : 1 ч. 40 м.
Битрейт : 29,2 Кбит/сек
ElementCount : 2268
Размер потока : 20,9 Мбайт (0%)
Язык : Norwegian
Default : Нет
Forced : Нет

Текст #13
Идентификатор : 18
Формат : PGS
Режим смешивания : zlib
Идентификатор кодека : S_HDMV/PGS
Идентификатор кодека/Информация : Picture based subtitle format used on BDs/HD-DVDs
Продолжительность : 1 ч. 40 м.
Битрейт : 29,1 Кбит/сек
ElementCount : 1972
Размер потока : 20,9 Мбайт (0%)
Язык : Danish
Default : Нет
Forced : Нет

Текст #14
Идентификатор : 19
Формат : PGS
Режим смешивания : zlib
Идентификатор кодека : S_HDMV/PGS
Идентификатор кодека/Информация : Picture based subtitle format used on BDs/HD-DVDs
Продолжительность : 1 ч. 40 м.
Битрейт : 32,9 Кбит/сек
ElementCount : 2636
Размер потока : 23,6 Мбайт (0%)
Язык : Finnish
Default : Нет
Forced : Нет

Текст #15
Идентификатор : 20
Формат : PGS
Режим смешивания : zlib
Идентификатор кодека : S_HDMV/PGS
Идентификатор кодека/Информация : Picture based subtitle format used on BDs/HD-DVDs
Продолжительность : 1 ч. 40 м.
Битрейт : 30,1 Кбит/сек
ElementCount : 2252
Размер потока : 21,6 Мбайт (0%)
Язык : Icelandic
Default : Нет
Forced : Нет

Текст #16
Идентификатор : 21
Формат : PGS
Режим смешивания : zlib
Идентификатор кодека : S_HDMV/PGS
Идентификатор кодека/Информация : Picture based subtitle format used on BDs/HD-DVDs
Продолжительность : 1 ч. 40 м.
Битрейт : 31,6 Кбит/сек
ElementCount : 2276
Размер потока : 22,7 Мбайт (0%)
Язык : Russian
Default : Нет
Forced : Нет

Текст #17
Идентификатор : 22
Формат : PGS
Режим смешивания : zlib
Идентификатор кодека : S_HDMV/PGS
Идентификатор кодека/Информация : Picture based subtitle format used on BDs/HD-DVDs
Продолжительность : 1 ч. 40 м.
Битрейт : 28,9 Кбит/сек
ElementCount : 2270
Размер потока : 20,8 Мбайт (0%)
Язык : Czech
Default : Нет
Forced : Нет

Текст #18
Идентификатор : 23
Формат : PGS
Режим смешивания : zlib
Идентификатор кодека : S_HDMV/PGS
Идентификатор кодека/Информация : Picture based subtitle format used on BDs/HD-DVDs
Продолжительность : 1 ч. 40 м.
Битрейт : 27,4 Кбит/сек
ElementCount : 2266
Размер потока : 19,6 Мбайт (0%)
Язык : Romanian
Default : Нет
Forced : Нет

Текст #19
Идентификатор : 24
Формат : PGS
Режим смешивания : zlib
Идентификатор кодека : S_HDMV/PGS
Идентификатор кодека/Информация : Picture based subtitle format used on BDs/HD-DVDs
Продолжительность : 1 ч. 40 м.
Битрейт : 31,9 Кбит/сек
ElementCount : 2636
Размер потока : 22,9 Мбайт (0%)
Язык : Slovak
Default : Нет
Forced : Нет

Текст #20
Идентификатор : 25
Формат : PGS
Режим смешивания : zlib
Идентификатор кодека : S_HDMV/PGS
Идентификатор кодека/Информация : Picture based subtitle format used on BDs/HD-DVDs
Продолжительность : 1 ч. 40 м.
Битрейт : 32,9 Кбит/сек
ElementCount : 2254
Размер потока : 23,6 Мбайт (0%)
Язык : Greek
Default : Нет
Forced : Нет

Текст #21
Идентификатор : 26
Формат : PGS
Режим смешивания : zlib
Идентификатор кодека : S_HDMV/PGS
Идентификатор кодека/Информация : Picture based subtitle format used on BDs/HD-DVDs
Продолжительность : 1 ч. 40 м.
Битрейт : 16,4 Кбит/сек
ElementCount : 2270
Размер потока : 11,7 Мбайт (0%)
Язык : Arabic
Default : Нет
Forced : Нет

Текст #22
Идентификатор : 27
Формат : PGS
Режим смешивания : zlib
Идентификатор кодека : S_HDMV/PGS
Идентификатор кодека/Информация : Picture based subtitle format used on BDs/HD-DVDs
Продолжительность : 1 ч. 40 м.
Битрейт : 21,8 Кбит/сек
ElementCount : 2274
Размер потока : 15,6 Мбайт (0%)
Язык : Chinese
Default : Нет
Forced : Нет

Текст #23
Идентификатор : 28
Формат : PGS
Режим смешивания : zlib
Идентификатор кодека : S_HDMV/PGS
Идентификатор кодека/Информация : Picture based subtitle format used on BDs/HD-DVDs
Продолжительность : 1 ч. 40 м.
Битрейт : 26,6 Кбит/сек
ElementCount : 2532
Размер потока : 19,1 Мбайт (0%)
Язык : Chinese
Default : Нет
Forced : Нет

Текст #24
Идентификатор : 29
Формат : PGS
Режим смешивания : zlib
Идентификатор кодека : S_HDMV/PGS
Идентификатор кодека/Информация : Picture based subtitle format used on BDs/HD-DVDs
Продолжительность : 1 ч. 40 м.
Битрейт : 19,1 Кбит/сек
ElementCount : 2274
Размер потока : 13,7 Мбайт (0%)
Язык : Korean
Default : Нет
Forced : Нет

Текст #25
Идентификатор : 30
Формат : PGS
Режим смешивания : zlib
Идентификатор кодека : S_HDMV/PGS
Идентификатор кодека/Информация : Picture based subtitle format used on BDs/HD-DVDs
Продолжительность : 1 ч. 40 м.
Битрейт : 55,4 Кбит/сек
ElementCount : 3541
Размер потока : 39,7 Мбайт (0%)
Язык : Hindi
Default : Нет
Forced : Нет

Текст #26
Идентификатор : 31
Формат : PGS
Режим смешивания : zlib
Идентификатор кодека : S_HDMV/PGS
Идентификатор кодека/Информация : Picture based subtitle format used on BDs/HD-DVDs
Продолжительность : 1 ч. 40 м.
Битрейт : 38,7 Кбит/сек
ElementCount : 2654
Размер потока : 27,8 Мбайт (0%)
Язык : Malay
Default : Нет
Forced : Нет

Меню
00:00:00.000 : en:00:00:00.000
00:02:42.287 : en:00:02:42.287
00:06:00.485 : en:00:06:00.485
00:11:51.544 : en:00:11:51.544
00:16:01.836 : en:00:16:01.836
00:22:02.947 : en:00:22:02.947
00:28:22.784 : en:00:28:22.784
00:34:01.831 : en:00:34:01.831
00:38:04.032 : en:00:38:04.032
00:42:10.111 : en:00:42:10.111
00:48:36.413 : en:00:48:36.413
00:55:46.093 : en:00:55:46.093
01:00:44.266 : en:01:00:44.266
01:07:46.604 : en:01:07:46.604
01:15:30.359 : en:01:15:30.359
01:24:10.796 : en:01:24:10.796
01:30:17.037 : en:01:30:17.037
01:34:13.565 : en:01:34:13.565



Скачать Черепашки-ниндзя через торрент https://c.radikal.ru/c31/1807/5d/616f4dca7ccc.png Скачать, смотреть онлайн Черепашки-ниндзя бесплантно в хорошем качестве Описание: Будучи маленькой, Эйприл часто бывала в лаборатории отца, генного инженера, который работал над проектом создания суперсолдат. В ... 10 10 2
Info! Золотая раздача, скачанное не засчитывается.
Торрент: Зарегистрирован [2018-07-22 06:02] · скачан: 5 раз
Статус: √ проверено
Размер: 28.26 GB
Как cкачать? Как скачать Черепашки-ниндзя через торрент | UTorrent

% Раздел Тема Автор DL S | L
Ultra HD (UHD: 2K, 4K, 8K) [ 45.83 GB ] Черепашки-ниндзя / Teenage Mutant Ninja Turtles | DUB | 2160p sheker187 Скачать
1 | 0
Ultra HD (UHD: 2K, 4K, 8K) [ 51.42 GB ] Черепашки-ниндзя / Teenage Mutant Ninja Turtles | DUB | 2160p sheker187 Скачать
1 | 0
Ultra HD (UHD: 2K, 4K, 8K) [ 59.82 GB ] Черепашки-ниндзя / Teenage Mutant Ninja Turtles | DUB | 2160p sheker187 Скачать
1 | 0
Фильмы (BDRip, HDrip-AVC) (48-60 fps) [ 3.87 GB ] Черепашки-ниндзя / Teenage Mutant Ninja Turtles | DUB | BDRip-AVC / 60fps, DUB Ressident Скачать
1 | 0
Фильмы 2014 [DVDrip, WEB-DLRip, HDrip] [ 1.46 GB ] Черепашки-ниндзя / Teenage Mutant Ninja Turtles | iTunes | DLRip, Дублированное [iTunes Anonymous Скачать
1 | 0
Фильмы (Blu-ray, BD-Remux, HDDVD) [ 43.61 GB ] Черепашки-ниндзя / Teenage Mutant Ninja Turtles | Лицензия | Лицензия Russian Mafia Скачать
1 | 0
Фильмы (Blu-ray, BD-Remux, HDDVD) [ 24.49 GB ] Черепашки-ниндзя / Teenage Mutant Ninja Turtles | Лицензия | Лицензия Бумер Скачать
1 | 0

28-11-2019 20:33  


Отключить вcю реклaмy на сайте, в т.ч. и в плеере онлайн просмотра!

    Дорогой пользователь! Огромная просьба, поблагодарите релизера, оцените раздачу и оставьте свои комментарий, если Вы скачали Черепашки-ниндзя через торрент бесплатно!!
    Комментировать посты могут только пользователи прошедшие не сложную регистрацию
    Показать сообщения:    


    Черепашки-ниндзя через торрент
    Скачать бесплатно Черепашки-ниндзя
    Черепашки-ниндзя скачать торрент
    Черепашки-ниндзя смотреть онлайн
    Cкачать фильм Черепашки-ниндзя бесплатно
    Черепашки-ниндзя скачать торрент в хорошем качестве
    Черепашки-ниндзя смотреть онлайн бесплатно в хорошем качестве
    Вы не можете начинать темы
    Вы не можете отвечать на сообщения
    Вы не можете редактировать свои сообщения
    Вы не можете удалять свои сообщения
    Вы не можете голосовать в опросах
    Вы не можете прикреплять файлы к сообщениям
    Вы можете скачивать файлы
    Черепашки-ниндзя / Teenage Mutant Ninja Turtles [2014 г., Фантастика, фэнтези, боевик, комедия, приключения, UHD BDRip 2160p] Дубляж + AVO [А. Гаврилов] смотреть онлайн, скачать торрент picoco.icu