Достать ножи: Стеклянная луковица

MVO

Добыча

Дубляж

Уэнсдэй

1 сезон

Тор

Дубляж

13 клиническая

1 сезон

Жестокая ночь

MVO

Одни из нас

1 сезон

Deluxe

pack

Рекомендуем

30

Пиратка

ВАЖНО

ВАЖНО

Ghostwire

Пиратка

jed

RePack

nioh2

RePack

RDR2

RePack

NEED FOR SPEED™ PAYBACK

RePack

скачать торрент

Кинопоиск HD

Острые козырьки 6 сезон

6 сезон

FAR CRY 6

RePack

скачать торрент

Лицензия

скачать торрент

MVO

1

1 сезон

скачать торрент

1 сезон

скачать торрент

Лицензия

  

Отряд самоубийц / Suicide Squad (Дэвид Эйр) [2016, фантастика, фэнтези, боевик, UHD BDRip 2160p SDR] Дубляж (rus, ukr)

Отряд самоубийц через торрент piratbit.org

Размер: 28.35 GB | Добавлен: 4 года 6 мес. назад | Торрент скачан:81 раз
Смотреть онлайн | Скачать | Поддержите нас   

22-07-2018 10:14 Отряд самоубийц Скачать торрент  

Отряд самоубийц / Suicide Squad

Год выпуска: 2016
Страна: США
Жанр: фантастика, фэнтези, боевик, приключения
Продолжительность: 02:02:53
Перевод: Дублированный
Субтитры: Русские, английские, украинские
Режиссер: Дэвид Эйр
В ролях:

Марго Робби (Harley Quinn), Уилл Смит (Deadshot), Джаред Лето (The Joker), Джай Кортни (George Harkness / Captain Boomerang), Кара Делевинь (June Moone / Enchantress), Джей Эрнандес (Diablo), Юэль Киннаман (Rick Flag), Виола Дэвис (Amanda Waller), Адевале Акинойе-Агбаже (Killer Croc), Скотт Иствуд (Lieutenant GQ Edwards), Джейм Фицсаймонс (Sergeant Ames Bravo 14), Айк Баринхолц (Griggs)
Описание:
Правительство решает дать команде суперзлодеев шанс на искупление. Подвох в том, что их отправляют на выполнение миссии, где они, вероятнее всего, погибнут.
Рейтинг:

MPAA: PG-13 - Детям до 13 лет просмотр не желателен
Качество: UHD BDRip 2160p SDR
Формат: MKV
Видео: MPEG-4 AVC, 27900 Кбит/с, 3840x1600, 23.976 кадр/с
Аудио: Русский / AC3 / 48 KHz / 5.1 ch / 448 Kbps (Дубляж - BD CEE)
Аудио: Украинский / AC3 / 48 KHz / 2 ch / 192 Kbps (Дубляж )
Аудио: Английский / AC3 / 48 KHz / 5.1 ch / 640 Kbps (Original)
Аудио: Английский / Dolby TrueHD / 48 KHz / 7.1 ch / 3800 Kbps (Original)
Навигация по главам: есть
Общее
Уникальный идентификатор : 199498476525454692358184902532196880530 (0x9616024C83696CB3A8A6AABFC2025092)
Полное имя : D:\Новая папкаVid\Новая_Мои раздачи\Suicide.Squad.2016.2160p.BluRay.SDR.8bit.UHD.BDRip.x264.Master5.mkv
Формат : Matroska
Версия формата : Version 4 / Version 2
Размер файла : 28,4 Гбайт
Продолжительность : 2 ч. 2 м.
Режим общего битрейта : Переменный
Общий поток : 33,0 Мбит/сек
Название фильма : Suicide.Squad.2016.2160p.BluRay.SDR.8bit.UHD.BDRip.x264.Master5
Дата кодирования : UTC 2017-10-18 21:48:56
Программа кодирования : mkvmerge v8.1.0 ('Psychedelic Postcard') 32bit
Библиотека кодирования : libebml v1.3.1 + libmatroska v1.4.2
Обложка : Yes
Attachments : cover.jpg

Видео
Идентификатор : 1
Формат : AVC
Формат/Информация : Advanced Video Codec
Профиль формата : High@L5.1
Параметр CABAC формата : Да
Параметр ReFrames формата : 5 кадров
Идентификатор кодека : V_MPEG4/ISO/AVC
Продолжительность : 2 ч. 2 м.
Битрейт : 27,9 Мбит/сек
Ширина : 3840 пикселей
Высота : 1600 пикселей
Соотношение сторон : 2,40:1
Режим частоты кадров : Постоянный
Частота кадров : 23,976 (24000/1001) кадра/сек
Цветовое пространство : YUV
Субдискретизация насыщенности : 4:2:0
Битовая глубина : 8 бит
Тип развёртки : Прогрессивная
Бит/(Пиксели*Кадры) : 0.189
Размер потока : 23,9 Гбайт (84%)
Заголовок : Suicide.Squad.2016.2160p.BluRay.SDR.8bit.UHD.BDRip.x264.Master5
Библиотека кодирования : x264 core 148 r2748 97eaef2
Настройки программы : cabac=1 / ref=5 / deblock=1:-1:-1 / analyse=0x3:0x113 / me=umh / subme=10 / psy=1 / psy_rd=1.00:0.15 / mixed_ref=1 / me_range=48 / chroma_me=1 / trellis=2 / 8x8dct=1 / cqm=0 / deadzone=21,11 / fast_pskip=1 / chroma_qp_offset=-3 / threads=50 / lookahead_threads=4 / sliced_threads=0 / nr=0 / decimate=0 / interlaced=0 / bluray_compat=0 / constrained_intra=0 / bframes=3 / b_pyramid=2 / b_adapt=2 / b_bias=0 / direct=3 / weightb=1 / open_gop=0 / weightp=2 / keyint=250 / keyint_min=23 / scenecut=40 / intra_refresh=0 / rc_lookahead=50 / rc=crf / mbtree=1 / crf=18.0 / qcomp=0.60 / qpmin=0 / qpmax=69 / qpstep=4 / ip_ratio=1.40 / aq=1:1.00
Язык : English
Default : Да
Forced : Нет

Аудио #1
Идентификатор : 2
Формат : Atmos / TrueHD
Идентификатор кодека : A_TRUEHD
Продолжительность : 2 ч. 2 м.
Вид битрейта : Переменный
Битрейт : 3800 Кбит/сек
Максимальный битрейт : 5847 Кбит/сек
Каналы : Object Based / 8 каналов
Расположение каналов : Object Based / Front: L C R, Side: L R, Back: L R, LFE
Частота : / 48,0 КГц
Частота кадров : 1200,000 кадров/сек (40 spf)
Метод сжатия : Без потерь
Размер потока : 3,26 Гбайт (12%)
Язык : English
Default : Нет
Forced : Нет

Аудио #2
Идентификатор : 3
Формат : AC-3
Формат/Информация : Audio Coding 3
Расширение режима : CM (complete main)
Параметр Endianness формата : Big
Идентификатор кодека : A_AC3
Продолжительность : 2 ч. 2 м.
Вид битрейта : Постоянный
Битрейт : 448 Кбит/сек
Каналы : 6 каналов
Расположение каналов : Front: L C R, Side: L R, LFE
Частота : 48,0 КГц
Частота кадров : 31,250 кадров/сек (1536 spf)
Метод сжатия : С потерями
Размер потока : 394 Мбайт (1%)
Заголовок : Дубляж - BD 3D CEE
Язык : Russian
Default : Да
Forced : Нет

Аудио #3
Идентификатор : 4
Формат : AC-3
Формат/Информация : Audio Coding 3
Расширение режима : CM (complete main)
Параметр Endianness формата : Big
Идентификатор кодека : A_AC3
Продолжительность : 2 ч. 2 м.
Вид битрейта : Постоянный
Битрейт : 192 Кбит/сек
Каналы : 2 канала
Расположение каналов : Front: L R
Частота : 48,0 КГц
Частота кадров : 31,250 кадров/сек (1536 spf)
Метод сжатия : С потерями
Размер потока : 169 Мбайт (1%)
Заголовок : Дубляж
Язык : Ukrainian
Default : Нет
Forced : Нет

Аудио #4
Идентификатор : 5
Формат : AC-3
Формат/Информация : Audio Coding 3
Расширение режима : CM (complete main)
Параметр Endianness формата : Big
Идентификатор кодека : A_AC3
Продолжительность : 2 ч. 2 м.
Вид битрейта : Постоянный
Битрейт : 640 Кбит/сек
Каналы : 6 каналов
Расположение каналов : Front: L C R, Side: L R, LFE
Частота : 48,0 КГц
Частота кадров : 31,250 кадров/сек (1536 spf)
Метод сжатия : С потерями
Размер потока : 563 Мбайт (2%)
Заголовок : Original
Язык : English
Default : Нет
Forced : Нет

Текст #1
Идентификатор : 6
Формат : UTF-8
Идентификатор кодека : S_TEXT/UTF8
Идентификатор кодека/Информация : UTF-8 Plain Text
Продолжительность : 2 ч. 2 м.
Битрейт : 4 бит/сек
Count of elements : 109
Размер потока : 3,68 Кбайт (0%)
Заголовок : Форсированные - BD 3D CEE
Язык : Russian
Default : Да
Forced : Нет

Текст #2
Идентификатор : 7
Формат : UTF-8
Идентификатор кодека : S_TEXT/UTF8
Идентификатор кодека/Информация : UTF-8 Plain Text
Продолжительность : 2 ч. 2 м.
Битрейт : 12 бит/сек
Count of elements : 169
Размер потока : 11,2 Кбайт (0%)
Заголовок : Форсированные + Песни
Язык : Russian
Default : Нет
Forced : Нет

Текст #3
Идентификатор : 8
Формат : UTF-8
Идентификатор кодека : S_TEXT/UTF8
Идентификатор кодека/Информация : UTF-8 Plain Text
Продолжительность : 1 ч. 54 м.
Битрейт : 8 бит/сек
Count of elements : 66
Размер потока : 6,95 Кбайт (0%)
Заголовок : Песни (перевод А. Матвеев)
Язык : Russian
Default : Нет
Forced : Нет

Текст #4
Идентификатор : 9
Формат : UTF-8
Идентификатор кодека : S_TEXT/UTF8
Идентификатор кодека/Информация : UTF-8 Plain Text
Продолжительность : 2 ч. 2 м.
Битрейт : 60 бит/сек
Count of elements : 1389
Размер потока : 54,5 Кбайт (0%)
Заголовок : Полные - BD 3D CEE
Язык : Russian
Default : Нет
Forced : Нет

Текст #5
Идентификатор : 10
Формат : UTF-8
Идентификатор кодека : S_TEXT/UTF8
Идентификатор кодека/Информация : UTF-8 Plain Text
Продолжительность : 2 ч. 2 м.
Битрейт : 5 бит/сек
Count of elements : 102
Размер потока : 4,61 Кбайт (0%)
Заголовок : Форсовані
Язык : Ukrainian
Default : Нет
Forced : Нет

Текст #6
Идентификатор : 11
Формат : UTF-8
Идентификатор кодека : S_TEXT/UTF8
Идентификатор кодека/Информация : UTF-8 Plain Text
Продолжительность : 2 ч. 2 м.
Битрейт : 48 бит/сек
Count of elements : 1319
Размер потока : 43,0 Кбайт (0%)
Заголовок : Full - BD 3D CEE
Язык : English
Default : Нет
Forced : Нет

Текст #7
Идентификатор : 12
Формат : UTF-8
Идентификатор кодека : S_TEXT/UTF8
Идентификатор кодека/Информация : UTF-8 Plain Text
Продолжительность : 2 ч. 2 м.
Битрейт : 52 бит/сек
Count of elements : 1614
Размер потока : 46,8 Кбайт (0%)
Заголовок : SDH - BD 3D CEE
Язык : English
Default : Нет
Forced : Нет

Меню
00:00:00.000 : en:Chapter 1
00:09:07.505 : en:Chapter 2
00:19:03.725 : en:Chapter 3
00:29:27.140 : en:Chapter 4
00:39:17.313 : en:Chapter 5
00:50:21.226 : en:Chapter 6
01:00:10.106 : en:Chapter 7
01:11:46.927 : en:Chapter 8
01:22:46.127 : en:Chapter 9
01:32:01.098 : en:Chapter 10
01:39:21.830 : en:Chapter 11
01:52:27.991 : en:Chapter 12



Скачать Отряд самоубийц через торрент https://a.radikal.ru/a12/1807/07/22289f894a9e.png Скачать, смотреть онлайн Отряд самоубийц бесплантно в хорошем качестве Описание: Правительство решает дать команде суперзлодеев шанс на искупление. Подвох в том, что их отправляют на выполнение миссии, где они, ... 10 10 6
Info! Золотая раздача, скачанное не засчитывается.
Торрент: Зарегистрирован [2018-07-22 10:14] · скачан: 81 раз
Статус: √ проверено
Размер: 28.35 GB
Как cкачать? Как скачать Отряд самоубийц через торрент | UTorrent

% Раздел Тема Автор DL S | L
Фильмы (HD 720p, 1080p) (48-60 fps) [ 4.35 GB ] Отряд самоубийц / Suicide Squad | Дубляж + AVO | 720p / 60 FPS + AVO slaventi-69 Скачать
3 | 0
Ultra HD (UHD: 2K, 4K, 8K) [ 58.32 GB ] Отряд самоубийц / Suicide Squad | Лицензия | 2160p sheker187 Скачать
2 | 0
Ultra HD (UHD: 2K, 4K, 8K) [ 52.07 GB ] Отряд самоубийц / Suicide Squad | DUB | 2160p sheker187 Скачать
1 | 0
Ultra HD (UHD: 2K, 4K, 8K) [ 48.19 GB ] Отряд самоубийц / Suicide Squad | Лицензия | 2160p bober100 Скачать
1 | 0
Фильмы (Blu-ray, BD-Remux, HDDVD) [ 25.5 GB ] Отряд самоубийц / Suicide Squad | Лицензия Blu-Ray CEE | BD Remux 1080p bober100 Скачать
1 | 0
Фильмы (HD 720p, 1080p) (48-60 fps) [ 4.36 GB ] Отряд самоубийц / Suicide Squad | DUB | 720p 60 fps от еnvy / NNNB еnvy Скачать
10 | 0
Ultra HD (UHD: 2K, 4K, 8K) [ 57.75 GB ] Отряд самоубийц / Suicide Squad [Расширенная версия/Extended Cut | Лицензия | 2160p bober100 Скачать
1 | 0

28-11-2019 20:33  


Отключить вcю реклaмy на сайте, в т.ч. и в плеере онлайн просмотра!

    Дорогой пользователь! Огромная просьба, поблагодарите релизера, оцените раздачу и оставьте свои комментарий, если Вы скачали Отряд самоубийц через торрент бесплатно!!
    Комментировать посты могут только пользователи прошедшие не сложную регистрацию
    Показать сообщения:    


    Отряд самоубийц через торрент
    Скачать бесплатно Отряд самоубийц
    Отряд самоубийц скачать торрент
    Отряд самоубийц смотреть онлайн
    Cкачать фильм Отряд самоубийц бесплатно
    Отряд самоубийц скачать торрент в хорошем качестве
    Отряд самоубийц смотреть онлайн бесплатно в хорошем качестве
    Вы не можете начинать темы
    Вы не можете отвечать на сообщения
    Вы не можете редактировать свои сообщения
    Вы не можете удалять свои сообщения
    Вы не можете голосовать в опросах
    Вы не можете прикреплять файлы к сообщениям
    Вы можете скачивать файлы
    Отряд самоубийц / Suicide Squad [2016, фантастика, фэнтези, боевик, UHD BDRip 2160p SDR] Дубляж смотреть онлайн, скачать торрент picoco.icu