Достать ножи: Стеклянная луковица

MVO

Добыча

Дубляж

Уэнсдэй

1 сезон

Тор

Дубляж

13 клиническая

1 сезон

Жестокая ночь

MVO

Одни из нас

1 сезон

Deluxe

pack

Рекомендуем

30

Пиратка

ВАЖНО

ВАЖНО

Ghostwire

Пиратка

jed

RePack

nioh2

RePack

RDR2

RePack

NEED FOR SPEED™ PAYBACK

RePack

скачать торрент

Кинопоиск HD

Острые козырьки 6 сезон

6 сезон

FAR CRY 6

RePack

скачать торрент

Лицензия

скачать торрент

MVO

1

1 сезон

скачать торрент

1 сезон

скачать торрент

Лицензия

  

Пассажиры / Passengers (Мортен Тильдум) [2016, фантастика, триллер, драма, UHD BDRip 2160p SDR] Дубляж (rus, ukr) + AVO [Ю.Сербин]

Пассажиры через торрент piratbit.org

Размер: 36.31 GB | Добавлен: 4 года 6 мес. назад | Торрент скачан:37 раз
Смотреть онлайн | Скачать | Поддержите нас   

23-07-2018 05:55 Пассажиры Скачать торрент  

Пассажиры / Passengers«Ничто не случайно»
Год выпуска: 2016
Страна: США
Жанр: фантастика, триллер, драма
Продолжительность: 01:56:09
Перевод: Дублированный, авторский
Субтитры: Русские, английские, украинские
Режиссер: Мортен Тильдум
В ролях:

Дженнифер Лоуренс (Aurora Lane), Крис Пратт (Jim Preston), Майкл Шин (Arthur), Лоренс Фишбёрн (Gus Mancuso), Энди Гарсиа (Captain Norris), Винс Фостер (Executive Officer), Кара Мишель Уайлдер (Communications Officer), Конор Брофи (Crew Member), Джули Серда (Instructor (Hologram)), Аврора Перрино (Best Friend), Лорен Фармер (Party Friend), Эмералд Мэйн (Party Friend)
Описание:
Космический корабль с 5 000 пассажирами на борту, погруженных на время полета в искусственный сон, держит курс на планету, которая станет для них новым домом. Всё идет по плану, но из-за сбоя системы двое пассажиров неожиданно просыпаются и понимают, что до конечного пункта путешествия 90 лет пути, и им суждено остаток жизни провести вдвоем в роскошных интерьерах корабля, оснащенного по последнему слову техники. Постепенно Джима и Аврору начинает непреодолимо тянуть друг к другу, но корабль попадает в беду, и теперь в их руках - жизнь и судьба всех обитателей корабля.
Рейтинг:

MPAA: PG-13 - Детям до 13 лет просмотр не желателен
Качество: UHD BDRip 2160p SDR
Формат: MKV
Видео: MPEG-4 AVC, 41500 Кбит/с, 3840x1604, 23.976 кадр/с
Аудио 1: AC3, 6 ch, 640 Kbps | Русский - Дубляж - BD Eur
Аудио 2: AC3, 6 ch, 448 Kbps | Авторский Ю.Сербин
Аудио 3: AC3, 6 ch, 640 kbps | Украинский - Дубляж - BD Eur
Аудио 4: DTS, 6 ch, 1509 kbps | Английский
Навигация по главам: есть
Общее
Уникальный идентификатор : 226895860246348084501091513270386046097 (0xAAB28D9B47005E8C954071EC14CC3491)
Полное имя : D:\Новая папкаVid\Новая_Мои раздачи\Passengers.2016.2160p.BluRay.x264.8bit.SDR.UHD.BDRip.x264.Master5.mkv
Формат : Matroska
Версия формата : Version 4 / Version 2
Размер файла : 36,3 Гбайт
Продолжительность : 1 ч. 56 м.
Общий поток : 44,7 Мбит/сек
Название фильма : Passengers.2016.2160p.BluRay.x264.8bit.SDR.UHD.BDRip.x264.Master5
Дата кодирования : UTC 2017-10-05 18:15:45
Программа кодирования : mkvmerge v8.1.0 ('Psychedelic Postcard') 32bit
Библиотека кодирования : libebml v1.3.1 + libmatroska v1.4.2
Обложка : Yes
Attachments : cover.jpg / poster (8).jpg

Видео
Идентификатор : 1
Формат : AVC
Формат/Информация : Advanced Video Codec
Профиль формата : High@L5.1
Параметр CABAC формата : Да
Параметр ReFrames формата : 5 кадров
Идентификатор кодека : V_MPEG4/ISO/AVC
Продолжительность : 1 ч. 56 м.
Битрейт : 41,5 Мбит/сек
Ширина : 3840 пикселей
Высота : 1604 пикселя
Соотношение сторон : 2,40:1
Режим частоты кадров : Постоянный
Частота кадров : 23,976 (24000/1001) кадра/сек
Цветовое пространство : YUV
Субдискретизация насыщенности : 4:2:0
Битовая глубина : 8 бит
Тип развёртки : Прогрессивная
Бит/(Пиксели*Кадры) : 0.281
Размер потока : 33,7 Гбайт (93%)
Заголовок : Passengers.2016.2160p.BluRay.x264.8bit.SDR.UHD.BDRip.x264.Master5
Библиотека кодирования : x264 core 148 r2748 97eaef2
Настройки программы : cabac=1 / ref=5 / deblock=1:-1:-1 / analyse=0x3:0x113 / me=umh / subme=10 / psy=1 / psy_rd=1.00:0.15 / mixed_ref=1 / me_range=48 / chroma_me=1 / trellis=2 / 8x8dct=1 / cqm=0 / deadzone=21,11 / fast_pskip=1 / chroma_qp_offset=-3 / threads=50 / lookahead_threads=4 / sliced_threads=0 / nr=0 / decimate=0 / interlaced=0 / bluray_compat=0 / constrained_intra=0 / bframes=3 / b_pyramid=2 / b_adapt=2 / b_bias=0 / direct=3 / weightb=1 / open_gop=0 / weightp=2 / keyint=250 / keyint_min=23 / scenecut=40 / intra_refresh=0 / rc_lookahead=50 / rc=crf / mbtree=1 / crf=16.0 / qcomp=0.60 / qpmin=0 / qpmax=69 / qpstep=4 / ip_ratio=1.40 / aq=1:1.00
Язык : English
Default : Да
Forced : Нет

Аудио #1
Идентификатор : 2
Формат : DTS
Формат/Информация : Digital Theater Systems
Режим : 16
Параметр Endianness формата : Big
Идентификатор кодека : A_DTS
Продолжительность : 1 ч. 56 м.
Вид битрейта : Постоянный
Битрейт : 1509 Кбит/сек
Каналы : 6 каналов
Расположение каналов : Front: L C R, Side: L R, LFE
Частота : 48,0 КГц
Частота кадров : 93,750 кадра/сек (512 spf)
Битовая глубина : 16 бит
Метод сжатия : С потерями
Размер потока : 1,22 Гбайт (3%)
Заголовок : DTS 5.1 @ 1509 kbps
Язык : English
Default : Нет
Forced : Нет

Аудио #2
Идентификатор : 3
Формат : AC-3
Формат/Информация : Audio Coding 3
Расширение режима : CM (complete main)
Параметр Endianness формата : Big
Идентификатор кодека : A_AC3
Продолжительность : 1 ч. 56 м.
Вид битрейта : Постоянный
Битрейт : 640 Кбит/сек
Каналы : 6 каналов
Расположение каналов : Front: L C R, Side: L R, LFE
Частота : 48,0 КГц
Частота кадров : 31,250 кадров/сек (1536 spf)
Метод сжатия : С потерями
Размер потока : 532 Мбайт (1%)
Заголовок : Дубляж - BD Eur
Язык : Russian
Default : Да
Forced : Нет

Аудио #3
Идентификатор : 4
Формат : AC-3
Формат/Информация : Audio Coding 3
Расширение режима : CM (complete main)
Параметр Endianness формата : Big
Идентификатор кодека : A_AC3
Продолжительность : 1 ч. 56 м.
Вид битрейта : Постоянный
Битрейт : 640 Кбит/сек
Каналы : 6 каналов
Расположение каналов : Front: L C R, Side: L R, LFE
Частота : 48,0 КГц
Частота кадров : 31,250 кадров/сек (1536 spf)
Метод сжатия : С потерями
Размер потока : 532 Мбайт (1%)
Заголовок : Дубляж - BD Eur
Язык : Ukrainian
Default : Нет
Forced : Нет

Аудио #4
Идентификатор : 11
Формат : AC-3
Формат/Информация : Audio Coding 3
Расширение режима : CM (complete main)
Параметр Endianness формата : Big
Идентификатор кодека : A_AC3
Продолжительность : 1 ч. 56 м.
Вид битрейта : Постоянный
Битрейт : 448 Кбит/сек
Каналы : 6 каналов
Расположение каналов : Front: L C R, Side: L R, LFE
Частота : 48,0 КГц
Частота кадров : 31,250 кадров/сек (1536 spf)
Метод сжатия : С потерями
Размер потока : 372 Мбайт (1%)
Заголовок : AVO | DD 5.1 @ 448 kbps - Авторский Ю.Сербин
Язык : Russian
Default : Нет
Forced : Нет

Текст #1
Идентификатор : 5
Формат : UTF-8
Идентификатор кодека : S_TEXT/UTF8
Идентификатор кодека/Информация : UTF-8 Plain Text
Продолжительность : 1 ч. 54 м.
Битрейт : 1 бит/сек
Count of elements : 26
Размер потока : 1,14 Кбайт (0%)
Заголовок : Форсированные (расширенные)
Язык : Russian
Default : Да
Forced : Нет

Текст #2
Идентификатор : 6
Формат : UTF-8
Идентификатор кодека : S_TEXT/UTF8
Идентификатор кодека/Информация : UTF-8 Plain Text
Продолжительность : 1 ч. 54 м.
Битрейт : 68 бит/сек
Count of elements : 1115
Размер потока : 57,7 Кбайт (0%)
Заголовок : Полные
Язык : Russian
Default : Нет
Forced : Нет

Текст #3
Идентификатор : 7
Формат : UTF-8
Идентификатор кодека : S_TEXT/UTF8
Идентификатор кодека/Информация : UTF-8 Plain Text
Продолжительность : 1 ч. 54 м.
Битрейт : 1 бит/сек
Count of elements : 20
Размер потока : 880 байт (0%)
Заголовок : Форсированные (расширенные)
Язык : Ukrainian
Default : Нет
Forced : Нет

Текст #4
Идентификатор : 8
Формат : UTF-8
Идентификатор кодека : S_TEXT/UTF8
Идентификатор кодека/Информация : UTF-8 Plain Text
Продолжительность : 1 ч. 54 м.
Битрейт : 75 бит/сек
Count of elements : 1282
Размер потока : 63,3 Кбайт (0%)
Заголовок : Полные
Язык : Ukrainian
Default : Нет
Forced : Нет

Текст #5
Идентификатор : 9
Формат : UTF-8
Идентификатор кодека : S_TEXT/UTF8
Идентификатор кодека/Информация : UTF-8 Plain Text
Продолжительность : 1 ч. 45 м.
Битрейт : 49 бит/сек
Count of elements : 1280
Размер потока : 37,9 Кбайт (0%)
Заголовок : Full
Язык : English
Default : Нет
Forced : Нет

Текст #6
Идентификатор : 10
Формат : UTF-8
Идентификатор кодека : S_TEXT/UTF8
Идентификатор кодека/Информация : UTF-8 Plain Text
Продолжительность : 1 ч. 48 м.
Битрейт : 57 бит/сек
Count of elements : 1619
Размер потока : 45,3 Кбайт (0%)
Заголовок : SDH
Язык : English
Default : Нет
Forced : Нет

Меню
00:00:00.000 : en:Chapter 1
00:07:04.674 : en:Chapter 2
00:14:38.210 : en:Chapter 3
00:20:33.649 : en:Chapter 4
00:25:06.338 : en:Chapter 5
00:30:30.662 : en:Chapter 6
00:40:47.987 : en:Chapter 7
00:50:23.020 : en:Chapter 8
00:57:28.945 : en:Chapter 9
01:02:54.812 : en:Chapter 10
01:10:47.159 : en:Chapter 11
01:17:48.664 : en:Chapter 12
01:25:17.028 : en:Chapter 13
01:31:45.041 : en:Chapter 14
01:37:53.242 : en:Chapter 15
01:42:18.549 : en:Chapter 16



Скачать Пассажиры через торрент https://d.radikal.ru/d05/1807/40/8a6184dc3a8a.png Скачать, смотреть онлайн Пассажиры бесплантно в хорошем качестве Описание: Космический корабль с 5 000 пассажирами на борту, погруженных на время полета в искусственный сон, держит курс на планету, ... 10 10 5
Info! Золотая раздача, скачанное не засчитывается.
Торрент: Зарегистрирован [2018-07-23 05:55] · скачан: 37 раз
Статус: √ проверено
Размер: 36.31 GB
Как cкачать? Как скачать Пассажиры через торрент | UTorrent

% Раздел Тема Автор DL S | L
Ultra HD (UHD: 2K, 4K, 8K) [ 50.31 GB ] Пассажиры / Passengers | Лицензия | 2160p bober100 Скачать
1 | 0
T Фильмы (DVD фильмы) [ 7.77 GB ] Пассажиры / Passengers | DUB | Пассажиры / Passengers (Мортен Тильдум / Morten Tyldum killermax2013 Скачать
1 | 0

28-11-2019 20:33  


Отключить вcю реклaмy на сайте, в т.ч. и в плеере онлайн просмотра!

    Дорогой пользователь! Огромная просьба, поблагодарите релизера, оцените раздачу и оставьте свои комментарий, если Вы скачали Пассажиры через торрент бесплатно!!
    Комментировать посты могут только пользователи прошедшие не сложную регистрацию
    Показать сообщения:    


    Пассажиры через торрент
    Скачать бесплатно Пассажиры
    Пассажиры скачать торрент
    Пассажиры смотреть онлайн
    Cкачать фильм Пассажиры бесплатно
    Пассажиры скачать торрент в хорошем качестве
    Пассажиры смотреть онлайн бесплатно в хорошем качестве
    Вы не можете начинать темы
    Вы не можете отвечать на сообщения
    Вы не можете редактировать свои сообщения
    Вы не можете удалять свои сообщения
    Вы не можете голосовать в опросах
    Вы не можете прикреплять файлы к сообщениям
    Вы можете скачивать файлы
    Пассажиры / Passengers [2016, фантастика, триллер, драма, UHD BDRip 2160p SDR] Дубляж + AVO [Ю.Сербин] смотреть онлайн, скачать торрент picoco.icu